[ Сегодня идет свободное скачивание без начисления Download ]


Статистика раздачи
Скачал: [ 3 ]
 
   
 
 
 
 
Можно мне тебя обнять? [1-2 из 2] (2017) WEB-DLRip Оригинальное название: Можно мне тебя обнять?
Год выпуска: 2017
Жанр: Мелодрама
Выпущено: Россия, Кинокомпания "Русское", ООО "Студия Аэлита"
Режиссер: Станислав Назиров
В ролях: Екатерина Редникова, Майя Горбань, Елена Цыплакова, Евгений Шириков, Дмитрий Соломыкин, Михаил Сафронов, Екатерина Фисун
О фильме: Аня Анисимова (Майя Горбань) – золотая медалистка, готовится к поступлению в университет. Ей нужно сдать всего одни экзамен, но экзаменатор оценивает ее предвзято, и Аня проваливает собеседование. Мать Ани – Лиза (Екатерина Редникова) предлагает ей развеяться и поехать к бабушке (Елена Цыплакова) в небольшой городок у моря.Там в этот момент прямо в зале суда освобождают местного красавца Геру (Евгений Шириков). Его друзья избили продавца и ограбили магазин, но Геру признали невиновным. Тем не менее он не может оставаться безучастным к судьбе своих непутевых друзей детства и пытается найти адвоката. В результате, влипает в еще большие неприятности и наживает себе врагов. Мать Ани в это время переживает тяжелое расставание с женихом (Михаил Сафронов). Лиза – страстная и увлекающаяся женщина без памяти влюбляется в Геру. Однако обстоятельства складываются так, что Гера все больше сближается с Аней, и между ними возникает настоящее глубокое чувство. Аня, Лиза и Гера не знают кем приходятся друг другу. Никто из них не догадываются, что оказался в любовном треугольнике, и что необузданная страсть Лизы, в итоге, приведет к трагедии…
Файл:
Качество: WEB-DLRip
Видео: XviD, ~ 1960 Кбит/с, 720x400
Аудио: AC3, 2 ch, 192 Кбит/с
Продолжительность: 2 х~ 01:30:00
Язык: Русский
Доп. ин-ция:
Релиз от Рип от Nicodem

MediaInfo:

Общее
Полное имя : D:\моё видио\Можно мне тебя обнять.2017.WEB-DLRip.by.Nicodem.Files-x\01.Можно мне тебя обнять.2017.WEB-DLRip.by.Nicodem.Files-x.avi
Формат : AVI
Формат/Информация : Audio Video Interleave
Размер файла : 1,37 Гбайт
Продолжительность : 1 ч. 30 м.
Общий поток : 2163 Кбит/сек
Программа кодирования : VirtualDubMod 1.5.10.3 | www.virtualdub-fr.org || (build 2550/release)
Библиотека кодирования : VirtualDubMod build 2550/release
Видео
Идентификатор : 0
Формат : MPEG-4 Visual
Профиль формата : Advanced Simple@L5
Параметр BVOP формата : 1
Параметр QPel формата : Нет
Параметр GMC формата : Без точки перехода
Параметр матрицы формата : Выборочная
Идентификатор кодека : XVID
Идентификатор кодека/Подсказка : XviD
Продолжительность : 1 ч. 30 м.
Битрейт : 1961 Кбит/сек
Ширина : 720 пикселей
Высота : 400 пикселей
Соотношение сторон : 16:9
Частота кадров : 25,000 кадров/сек
Цветовое пространство : YUV
Субдискретизация насыщенности : 4:2:0
Битовая глубина : 8 бит
Тип развёртки : Прогрессивная
Метод сжатия : С потерями
Бит/(Пиксели*Кадры) : 0.272
Размер потока : 1,24 Гбайт (91%)
Библиотека кодирования : XviD 1.2.1 (UTC 2008-12-04)
Аудио
Идентификатор : 1
Формат : AC-3
Формат/Информация : Audio Coding 3
Расширение режима : CM (complete main)
Параметр Endianness формата : Big
Идентификатор кодека : 2000
Продолжительность : 1 ч. 30 м.
Вид битрейта : Постоянный
Битрейт : 192 Кбит/сек
Каналы : 2 канала
Расположение каналов : Front: L R
Частота : 48,0 КГц
Битовая глубина : 16 бит
Метод сжатия : С потерями
Размер потока : 124 Мбайт (9%)
Выравнивание : Разделение по промежуткам
Продолжительность промежутка : 40 мс. (1,00 видеокадр)
Время предзагрузки промежутка : 500 мс.

Скриншоты

[Цитировать]



Показать сообщения:    

Текущее время: 22-Май 04:47

Часовой пояс: UTC + 6


Вы не можете начинать темы
Вы не можете отвечать на сообщения
Вы не можете редактировать свои сообщения
Вы не можете удалять свои сообщения
Вы не можете голосовать в опросах
Вы не можете прикреплять файлы к сообщениям
Вы не можете скачивать файлы

!ВНИМАНИЕ!
Сайт не предоставляет электронные версии произведений, а занимается лишь коллекционированием и каталогизацией ссылок, присылаемых и публикуемых на форуме нашими читателями. Если вы являетесь правообладателем какого-либо представленного материала и не желаете, чтобы ссылка на него находилась в нашем каталоге, свяжитесь с нами, и мы незамедлительно удалим ее. Файлы для обмена на трекере предоставлены пользователями сайта, и администрация не несет ответственности за их содержание. Просьба не заливать файлы, защищенные авторскими правами, а также файлы нелегального содержания!