[ Сегодня идет свободное скачивание без начисления Download ]


Статистика раздачи
Качаю: [ 2 ]
Скачал: [ 32 ]
 
   
 
 
 
 
Дикие желания
Mädchen im Nachtverkehr
- Информация:
Название: Дикие желания (Девушки в ночное время)
Оригинальное название: Mädchen im Nachtverkehr (Girls in the Night Traffic / Wild Desire)
Год выпуска: 1976
Жанр: Эротика
Режиссер: Эрвин С. Дитрих, Хесус Франко
В ролях: Кали Ханса, Диотта Фато, Эстер Мосер, Эрик Фальк, Роман Хубер, Ивонни Эдузер, Пауль Нуссбаумер
О фильме:
Фильм рассказывает о трех подружках, работающих элитными проститутками в Цюрихе. В один прекрасный день одну из них похищают и продают в турецкий бордель. Подружки отправляются на её поиски и в итоге попадают в тот же бордель...

Полная версия отличается от цензурной версии большим количеством расширенных и новых эротических сцен - более 50 дополнений общей продолжительностью около 3 мин.
Так как Алексеев переводил урезанную версию фильма, то в некоторых сценах присутствуют небольшие вставки без перевода.

Страна: Швейцария
Студия: Elite Film AG Zürich
Продолжительность: 01:11:36
Перевод: Авторский одноголосый (Антон Алексеев)
Файл:
Кодек: MPEG-4 AVC
Качество: BDRip (720p)
Видео: 4262 Кбит/с, 1280x704
Звук: Русский (АС3, 2 ch, 192 Кбит/с), Немецкий (DTS, 6 ch, 1509 Кбит/с)
Субтитры: Английские

MediaInfo:


General
Unique ID : 211306590183705133254901429077825019143 (0x9EF82B402F08CBFB95BC56FADD4FDD07)
Complete name : F:\Maedchen im Nachtverkehr. 1976. BDRip (720p) - ylnian.mkv
Format : Matroska
Format version : Version 4 / Version 2
File size : 2.99 GiB
Duration : 1 h 11 min
Overall bit rate : 5 970 kb/s
Movie name : Mädchen im Nachtverkehr. 1976. BDRip (720p) - ylnian
Encoded date : UTC 2015-01-07 05:41:51
Writing application : mkvmerge v7.2.0 ('On Every Street') 64bit built on Sep 13 2014 15:52:10
Writing library : libebml v1.3.0 + libmatroska v1.4.1
Video
ID : 1
Format : AVC
Format/Info : Advanced Video Codec
Format profile : High@L4.1
Format settings : CABAC / 5 Ref Frames
Format settings, CABAC : Yes
Format settings, RefFrames : 5 frames
Codec ID : V_MPEG4/ISO/AVC
Duration : 1 h 11 min
Bit rate : 4 262 kb/s
Width : 1 280 pixels
Height : 704 pixels
Display aspect ratio : 16:9
Frame rate mode : Constant
Frame rate : 24.000 FPS
Color space : YUV
Chroma subsampling : 4:2:0
Bit depth : 8 bits
Scan type : Progressive
Bits/(Pixel*Frame) : 0.197
Stream size : 2.13 GiB (71%)
Title : Maedchen.im.Nachtverkehr.1976.German.720p.BluRay.x264-iFPD
Writing library : x264 core 142 r2431 ac76440
Encoding settings : cabac=1 / ref=5 / deblock=1:-3:-3 / analyse=0x3:0x113 / me=umh / subme=7 / psy=1 / psy_rd=1.00:0.15 / mixed_ref=1 / me_range=16 / chroma_me=1 / trellis=1 / 8x8dct=1 / cqm=0 / deadzone=21,11 / fast_pskip=0 / chroma_qp_offset=-3 / threads=12 / lookahead_threads=2 / sliced_threads=0 / nr=0 / decimate=1 / interlaced=0 / bluray_compat=0 / constrained_intra=0 / bframes=3 / b_pyramid=2 / b_adapt=1 / b_bias=0 / direct=3 / weightb=1 / open_gop=0 / weightp=2 / keyint=250 / keyint_min=24 / scenecut=40 / intra_refresh=0 / rc_lookahead=40 / rc=crf / mbtree=1 / crf=20.0 / qcomp=0.60 / qpmin=0 / qpmax=69 / qpstep=4 / ip_ratio=1.40 / aq=1:1.00
Language : German
Default : Yes
Forced : Yes
Audio #1
ID : 2
Format : AC-3
Format/Info : Audio Coding 3
Format settings, Endianness : Big
Codec ID : A_AC3
Duration : 1 h 11 min
Bit rate mode : Constant
Bit rate : 192 kb/s
Channel(s) : 2 channels
Channel positions : Front: L R
Sampling rate : 48.0 kHz
Frame rate : 31.250 FPS (1536 SPF)
Bit depth : 16 bits
Compression mode : Lossy
Stream size : 98.3 MiB (3%)
Title : AVO (AC3 2.0 192 kbps)
Language : Russian
Service kind : Complete Main
Default : Yes
Forced : Yes
Audio #2
ID : 3
Format : DTS
Format/Info : Digital Theater Systems
Mode : 16
Format settings, Endianness : Big
Codec ID : A_DTS
Duration : 1 h 11 min
Bit rate mode : Constant
Bit rate : 1 509 kb/s
Channel(s) : 6 channels
Channel positions : Front: L C R, Side: L R, LFE
Sampling rate : 48.0 kHz
Frame rate : 93.750 FPS (512 SPF)
Bit depth : 24 bits
Compression mode : Lossy
Stream size : 773 MiB (25%)
Title : DTS 5.1 1509 kbps
Language : German
Default : No
Forced : No
Text
ID : 4
Format : VobSub
Codec ID : S_VOBSUB
Codec ID/Info : Picture based subtitle format used on DVDs
Duration : 1 h 11 min
Bit rate : 4 031 b/s
Count of elements : 491
Stream size : 2.06 MiB (0%)
Language : English
Default : No
Forced : No
Menu
00:00:00.000 : en:00:00:00.000
00:06:58.583 : en:00:06:58.583
00:12:26.458 : en:00:12:26.458
00:15:43.958 : en:00:15:43.958
00:24:09.167 : en:00:24:09.167
00:33:27.292 : en:00:33:27.292
00:36:30.500 : en:00:36:30.500
00:45:10.250 : en:00:45:10.250
00:52:04.875 : en:00:52:04.875
00:55:17.708 : en:00:55:17.708
01:06:07.625 : en:01:06:07.625
01:08:30.333 : en:01:08:30.333

Скриншоты

Дополнительная информация

От: ylnian

[Цитировать]



Показать сообщения:    

Текущее время: 28-Май 09:16

Часовой пояс: UTC + 6


Вы не можете начинать темы
Вы не можете отвечать на сообщения
Вы не можете редактировать свои сообщения
Вы не можете удалять свои сообщения
Вы не можете голосовать в опросах
Вы не можете прикреплять файлы к сообщениям
Вы не можете скачивать файлы

!ВНИМАНИЕ!
Сайт не предоставляет электронные версии произведений, а занимается лишь коллекционированием и каталогизацией ссылок, присылаемых и публикуемых на форуме нашими читателями. Если вы являетесь правообладателем какого-либо представленного материала и не желаете, чтобы ссылка на него находилась в нашем каталоге, свяжитесь с нами, и мы незамедлительно удалим ее. Файлы для обмена на трекере предоставлены пользователями сайта, и администрация не несет ответственности за их содержание. Просьба не заливать файлы, защищенные авторскими правами, а также файлы нелегального содержания!