[ Сегодня идет свободное скачивание без начисления Download ]


Статистика раздачи
Скачал: [ 1 ]
 
   
 
 
 
 
Наемные убийцы / Assassins (1995) BDRip-AVC-- Информация о фильме
Название: Наемные убийцы
Оригинальное название: Assassins
Год выхода: 1995
Жанр: Боевик, триллер, криминал
Режиссер: Ричард Доннер / Richard Donner
В ролях: Сильвестр Сталлоне, Антонио Бандерас, Джулианна Мур, Анатолий Давыдов, Мьюз Уотсон, Стив Кэхэн, Келли Роуэн, Рид Даймонд, Кай Вулфф
О фильме:
Роберт Рэт — лучший киллер, номер один в своём деле. Но кодекс чести и чувство долга, что некогда составляли часть его смертельной карьеры, исчезли. Мир, возникший после холодной войны, переполнен отморозками. Рэт хочет «завязать». Ему поручили убрать хакершу Электру , ворующую из компьютерных сетей секретную информацию и продающую ее тем, кто больше заплатит. Задание перехватывает молодой и амбициозный киллер Мигель Бэйн, мечтающий занять место стареющего Роберта, чтобы самому стать номером первым. Рэт не убивает жертву, а объединяет их усилия по получению денег. Мигель Бэйн получает задание убить Рэта. Но как оказывается, у старшего киллера есть ещё один враг…

Страна: США, Франция
Студия: Warner Bros. Pictures, Le Studio Canal+, Silver Pictures
Продолжительность: 02:12:55
Перевод: Профессиональный (дублированный)
Файл
Кодек: H.264
Качество: BDRip-AVC [BDRemux 1080p]
Видео: High@L4.1, ~720 Kбит/с, 736x414, 23.976 кадр/с
Звук: AAC, 2 ch, ~64 Кбит/с
Субтитры: Русские, английские--

M/I

General
Unique ID : 211290293500169975454180350027222321777 (0x9EF507C31E8B9A25AF12DB0E53898A71)
Complete name : D:Наемные убийцы.(1995).BDRIP-AVC.[-=DoMiNo=-].mkv
Format : Matroska
Format version : Version 4 / Version 2
File size : 746 MiB
Duration : 2 h 12 min
Overall bit rate : 786 kb/s
Movie name : Наемные убийцы
Deion : Роберт Рэт — лучший киллер, номер один в своём деле. Но кодекс чести и чувство долга, что некогда составляли часть его смертельной карьеры, исчезли. Мир, возникший после холодной войны, переполнен отморозками. Рэт хочет «завязать». Ему поручили убрать хакершу Электру , ворующую из компьютерных сетей секретную информацию и продающую ее тем, кто больше заплатит. Задание перехватывает молодой и амбициозный киллер Мигель Бэйн, мечтающий занять место стареющего Роберта, чтобы самому стать номером первым. Рэт не убивает жертву, а объединяет их усилия по получению денег. Мигель Бэйн получает задание убить Рэта. Но как оказывается, у старшего киллера есть ещё один враг…
Encoded date : UTC 2017-10-28 17:28:11
Writing application : mkvmerge v17.0.0 ('Be Ur Friend') 64-bit
Writing library : libebml v1.3.5 + libmatroska v1.4.8 / Lavf57.71.100
Attachments : poster.jpg
ACTORS : Сильвестр Сталлоне, Антонио Бандерас, Джулианна Мур, Анатолий Давыдов, Мьюз Уотсон, Стив Кэхэн, Келли Роуэн, Рид Даймонд, Кай Вулфф, Керри Скалски, Джеймс Дуглас Хэскинс, Стивен Лиска, Джон Хармс, Эдвард Дж. Розен, Кристина Орчид, Брюс Р. Орчид, Джеймс Оливер, Сью Кэролин Уайз, Рон Бен Джарретт, Мэриэн Колье, Дэйв Янг, Рагна Сигрун, Марк Вудфорд, Анибаль О. Льерас, Марта Лабатут, Орта, Айвон Пьяцца, Анхель Васкес, Аксель Андерсон, Дэвид Доллазе, Джим Грэхэм, Уолли Далтон, Пол Туэрпе, Джон Прокаччино, Нерисса Е. Уильямс, Хуан Мануэль Леброн, Эдди Беллафлорс, Томас Хелглэнд, Джеймс В. Гэвин, Скотт Стубер, Ричард Блум, Майкл ДеКурси, Уити Шапиро, Стефан Энрикез, Фульвио Чечере, Ширли Оливер, Эрик Сэтер, Уолли Гадджелл, Дж. Миллс Гудло, Питер Себастьян Лакафф, Джон Ламар, Эрни Холл, Калли Медведь, Роберт Сандерс, Ронда Дж. Осборн, Кристина Херрера, Кэри Санчез, Фрэнки Р. Хименез мл., Джефф Кинг, Дэвид ’Шарк’ Фралик, Боб Майнор, Герман Легаррета, Венди Бонс, Майкл Тейлор Донован, Tim Earnheart, Хезер Л. Хэтли, Барбара Энн Клейн, Эрик Л. Нельсон, Брюс Рютлингер, Рэй-Филлип Сантос
COMPOSER : Марк Манчина
COUNTRY : Франция, США
DATE : 1995
DIRECTOR : Ричард Доннер
ENCODING_INFO : MATROSKA,WEBM > MKV Произвольный / H264 > X264 VBR-2P 720kbps Произвольный / DTS > AAC CBR 64kbps HE
GENRE : боевик, триллер, криминал
HD_VIDEO : 1
IMDB_RATING : 6.30
ITUNEXTC : mpaa|R|400|
Language : und
MEDIA_TYPE : 9
ORIGINAL_ACTORS : Sylvester Stallone, Antonio Banderas, Julianne Moore, Anatoli Davydov (в титрах: Anatoly Davydov), Muse Watson, Steve Kahan (в титрах: Stephen Kahan), Kelly Rowan, Reed Diamond, Kai Wulff, Kerry Skalsky, James Douglas Haskins, Stephen Liska, John Harms, Edward J. Rosen, Christina Orchid, Bruce R. Orchid, James Oliver (в титрах: James Louis Oliver), Sue Carolyn Wise, Ron Ben Jarrett, Marian Collier, Dave Young, Ragna Sigrun, Mark Woodford, Anibal O. Lleras, Marta Labatut, Choco Orta, Ivonne Piazza, Ángel Vázquez, Axel Anderson, David Dollase, Jim Graham, Wally Dalton, Paul Tuerpe, John Procaccino, Nerissa E. Williams, Juan Manuel Lebrón, Eddie Bellaflores, Thomas Helgeland, James W. Gavin, Scott Stuber, Richard Blum, Michael DeCourcey, Whitey Shapiro, Stefan Enriquez, Fulvio Cecere, Shirley Oliver, Eric Sather, Wally Gudgell, J. Mills Goodloe, Peter Sebastian Lackaff, John Lamar, Ernie Hall, Calli Medved, Robert Sanders, Rhonda J. Osborne, Christina Herrera, Cary Sanchez, Frank R. Jimenez Jr. (в титрах: Frankie R. Jimenez Jr.), Jeff King, David «Shark» Fralick (в титрах: David Shark [Fralick]), Bob Minor, Germán Legarreta, Wendy Bones, Michael Taylor Donovan, Heather L. Hatley, Barbara Anne Klein, Erik L. Nelson, Bruce Reutlinger, Rey-Phillip Santos
ORIGINAL_TITLE : Assassins
PRODUCER : Ричард Доннер, Брюс А. Эванс, Рэйнольд Гидеон, Эндрю Лазар, Джоэл Силвер, Джим Ван Вик, Александр Б. Коллетт, Дэн Краччиоло, Дино Де Лаурентис, Джули Дерк, Керин Филдс, Дж. Миллс Гудло, Тони Мунафо, Синтия Небер, Илиза А. Рютлингер, Лорен Шулер Доннер, Ричард Соломон
RATING : 7.470
WRITER : Лилли Вачовски, Лана Вачовски, Брайан Хелгеленд
Video
ID : 1
Format : AVC
Format/Info : Advanced Video Codec
Format profile : High@L4.1
Format settings : CABAC / 12 Ref Frames
Format settings, CABAC : Yes
Format settings, RefFrames : 12 frames
Codec ID : V_MPEG4/ISO/AVC
Duration : 2 h 12 min
Bit rate : 720 kb/s
Width : 736 pixels
Height : 414 pixels
Display aspect ratio : 16:9
Frame rate mode : Constant
Frame rate : 23.976 (24000/1001) FPS
Color space : YUV
Chroma subsampling : 4:2:0
Bit depth : 8 bits
Scan type : Progressive
Bits/(Pixel*Frame) : 0.099
Stream size : 683 MiB (92%)
Title : RIP_BY_-=DoMiNo=-
Writing library : x264 core 152 r2851M ba24899
Encoding settings : cabac=1 / ref=12 / deblock=1:-3:-3 / analyse=0x3:0x133 / me=umh / subme=11 / psy=1 / psy_rd=1.05:0.50 / mixed_ref=1 / me_range=48 / chroma_me=1 / trellis=2 / 8x8dct=1 / cqm=0 / deadzone=21,11 / fast_pskip=1 / chroma_qp_offset=-4 / threads=6 / lookahead_threads=1 / sliced_threads=0 / nr=0 / decimate=1 / interlaced=0 / bluray_compat=0 / constrained_intra=0 / bframes=12 / b_pyramid=2 / b_adapt=2 / b_bias=0 / direct=3 / weightb=1 / open_gop=0 / weightp=2 / keyint=230 / keyint_min=23 / scenecut=40 / intra_refresh=0 / rc_lookahead=60 / rc=2pass / mbtree=1 / bitrate=720 / ratetol=1.0 / qcomp=0.70 / qpmin=0 / qpmax=69 / qpstep=4 / cplxblur=20.0 / qblur=0.5 / ip_ratio=1.40 / aq=1:1.00
Language : English
Default : Yes
Forced : No
Audio
ID : 2
Format : AAC
Format/Info : Advanced Audio Codec
Format profile : HE-AAC / LC
Format settings : Implicit
Codec ID : A_AAC-2
Duration : 2 h 12 min
Bit rate : 64.0 kb/s
Channel(s) : 2 channels
Channel positions : Front: L R
Sampling rate : 48.0 kHz / 24.0 kHz
Frame rate : 23.438 FPS (1024 SPF)
Compression mode : Lossy
Delay relative to video : 11 ms
Stream size : 60.8 MiB (8%)
Title : Дубляж
Language : Russian
Default : Yes
Forced : No
Text #1
ID : 3
Format : UTF-8
Codec ID : S_TEXT/UTF8
Codec ID/Info : UTF-8 Plain Text
Duration : 2 h 6 min
Bit rate : 46 b/s
Count of elements : 1116
Stream size : 43.3 KiB (0%)
Language : Russian
Default : No
Forced : No
Text #2
ID : 4
Format : UTF-8
Codec ID : S_TEXT/UTF8
Codec ID/Info : UTF-8 Plain Text
Duration : 2 h 4 min
Bit rate : 35 b/s
Count of elements : 1107
Stream size : 32.2 KiB (0%)
Language : English
Default : No
Forced : No
Menu
00:00:00.000 : :00:00:00.000
00:05:35.293 : :00:05:35.293
00:10:00.934 : :00:10:00.934
00:14:44.467 : :00:14:44.467
00:17:39.099 : :00:17:39.100
00:19:01.640 : :00:19:01.640
00:24:35.015 : :00:24:35.015
00:30:03.719 : :00:30:03.719
00:31:34.184 : :00:31:34.184
00:34:57.804 : :00:34:57.804
00:36:47.414 : :00:36:47.414
00:37:56.774 : :00:37:56.774
00:44:13.442 : :00:44:13.442
00:48:12.473 : :00:48:12.473
00:55:02.216 : :00:55:02.216
00:59:54.925 : :00:59:54.925
01:03:05.699 : :01:03:05.699
01:06:50.506 : :01:06:50.506
01:08:38.448 : :01:08:38.448
01:12:37.270 : :01:12:37.270
01:17:07.331 : :01:17:07.331
01:20:52.556 : :01:20:52.556
01:22:00.499 : :01:22:00.499
01:27:24.281 : :01:27:24.281
01:31:34.989 : :01:31:34.989
01:35:18.004 : :01:35:18.004
01:41:39.802 : :01:41:39.802
01:42:59.840 : :01:42:59.840
01:46:12.116 : :01:46:12.116
01:47:33.530 : :01:47:33.530
01:52:24.196 : :01:52:24.196
01:55:42.602 : :01:55:42.602
01:57:09.773 : :01:57:09.773
01:59:17.984 : :01:59:17.984
02:01:53.640 : :02:01:53.640
02:03:05.712 : :02:03:05.712
02:06:34.879 : :02:06:34.879

Скриншоты

--

[Цитировать]



Показать сообщения:    

Текущее время: 28-Май 13:41

Часовой пояс: UTC + 6


Вы не можете начинать темы
Вы не можете отвечать на сообщения
Вы не можете редактировать свои сообщения
Вы не можете удалять свои сообщения
Вы не можете голосовать в опросах
Вы не можете прикреплять файлы к сообщениям
Вы не можете скачивать файлы

!ВНИМАНИЕ!
Сайт не предоставляет электронные версии произведений, а занимается лишь коллекционированием и каталогизацией ссылок, присылаемых и публикуемых на форуме нашими читателями. Если вы являетесь правообладателем какого-либо представленного материала и не желаете, чтобы ссылка на него находилась в нашем каталоге, свяжитесь с нами, и мы незамедлительно удалим ее. Файлы для обмена на трекере предоставлены пользователями сайта, и администрация не несет ответственности за их содержание. Просьба не заливать файлы, защищенные авторскими правами, а также файлы нелегального содержания!