[ Сегодня идет свободное скачивание без начисления Download ]


Статистика раздачи
Скачал: [ 4 ]
 
   
 
 
 
 
Камера бесконечности
Infinity Chamber
- Информация:
Производство: США
Жанр: Фантастика, Триллер
Режиссер: Трейвис Миллоу
Продюсер: Thomas Eberts, Трейвис Миллоу, Laurie Sheldon
Актеры: Крис Келли, Кассандра Кларк, Чак Клейн, Брэндон Лумис, Гаррет Бекке, Андреа Энни, Оуэнс Сьюзан, Белкин Брайан, Раговин Аманда, Лау Луи Клоц
Описание:
Главного героя заперли в автоматизированной тюрьме. Ему предстоит обхитрить компьютер, чтобы сбежать и попытаться найти дорогу назад — во внешний мир, которого уже может не существовать.

Дата мировой премьеры: 03.12.2016
Продолжительность: 01:45:38
Перевод: Многоголосый закадровый (MUZOBOZ)
Файл:
Качество видео: WEB-DLRip
Видео: H.264/1080p, 1920x800, ~4956 Kbps
Аудио: AC3, 2 ch, 384 Kbps
Субтитры: Отсутствуют
Присутствуют вставки видео, голосовой и текстовой рекламы

Mediainfo:

Общее
Уникальный идентификатор : 227534239815983287769807522245891863901 (0xAB2D80263D7C8E11BEBCBDCC3E60355D)
Полное имя : D:\Видео\torrrent\Infinity.Chamber.2016.P.WEB-DL.1O8Op.mkv
Формат : Matroska
Версия формата : Version 2
Размер файла : 3,94 Гбайт
Продолжительность : 1 ч. 45 м.
Режим общего битрейта : Переменный
Общий поток : 5342 Кбит/сек
Дата кодирования : UTC 2017-09-30 11:15:06
Программа кодирования : mkvmerge v8.3.0 ('Over the Horizon') 64bit
Библиотека кодирования : libebml v1.3.1 + libmatroska v1.4.2
Видео
Идентификатор : 2
Формат : AVC
Формат/Информация : Advanced Video Codec
Профиль формата : High@L4.1
Параметр CABAC формата : Да
Параметр RefFrames формата : 5 кадров
Идентификатор кодека : V_MPEG4/ISO/AVC
Продолжительность : 1 ч. 45 м.
Вид битрейта : Переменный
Битрейт : 4956 Кбит/сек
Максимальный битрейт : 5500 Кбит/сек
Ширина : 1920 пикселей
Высота : 800 пикселей
Соотношение сторон : 2,40:1
Режим частоты кадров : Постоянный
Частота кадров : 23,976 (24000/1001) кадра/сек
Стандарт вещания : Component
Цветовое пространство : YUV
Субдискретизация насыщенности : 4:2:0
Битовая глубина : 8 бит
Тип развёртки : Прогрессивная
Бит/(Пиксели*Кадры) : 0.135
Размер потока : 3,66 Гбайт (93%)
Default : Да
Forced : Нет
Цветовой диапазон : Limited
Основные цвета : BT.709
Характеристики трансфера : BT.709
Коэффициенты матрицы : BT.709
Аудио
Идентификатор : 1
Формат : AC-3
Формат/Информация : Audio Coding 3
Параметр Endianness формата : Big
Идентификатор кодека : A_AC3
Продолжительность : 1 ч. 45 м.
Вид битрейта : Постоянный
Битрейт : 384 Кбит/сек
Каналы : 2 канала
Расположение каналов : Front: L R
Частота : 48,0 КГц
Частота кадров : 31,250 кадров/сек (1536 SPF)
Битовая глубина : 16 бит
Метод сжатия : С потерями
Размер потока : 290 Мбайт (7%)
ServiceKind/String : Complete Main
Default : Да
Forced : Нет

Скриншоты

Скриншоты:

[Цитировать]



Показать сообщения:    

Текущее время: 25-Май 14:58

Часовой пояс: UTC + 6


Вы не можете начинать темы
Вы не можете отвечать на сообщения
Вы не можете редактировать свои сообщения
Вы не можете удалять свои сообщения
Вы не можете голосовать в опросах
Вы не можете прикреплять файлы к сообщениям
Вы не можете скачивать файлы

!ВНИМАНИЕ!
Сайт не предоставляет электронные версии произведений, а занимается лишь коллекционированием и каталогизацией ссылок, присылаемых и публикуемых на форуме нашими читателями. Если вы являетесь правообладателем какого-либо представленного материала и не желаете, чтобы ссылка на него находилась в нашем каталоге, свяжитесь с нами, и мы незамедлительно удалим ее. Файлы для обмена на трекере предоставлены пользователями сайта, и администрация не несет ответственности за их содержание. Просьба не заливать файлы, защищенные авторскими правами, а также файлы нелегального содержания!