[ Сегодня идет свободное скачивание без начисления Download ]


Статистика раздачи
Скачал: [ 7 ]
 
   
 
 
 
 
Неоспоримый 4
Boyka Undisputed IV
- Информация:
Год: 2016
Производство: Таиланд, Nu Boyana Viburno
Жанр: Боевик
Режиссер: Тодор Чапканов
Продюсер: Боаз Дэвидсон, Фрэнк ДеМартини, Рик Эйлер
Актеры: Скотт Эдкинс, Теодора Духовникова, Алон Абутбул, Юлиан Вергов, Брахим Ачаббаке, Пол Чахиди, Пети Петков, Валентин Ганев, Владо Мажанаов, Мартин Форд ...
Описание:
Бойка пробует свои силы в высшей лиге, но случайная смерть на ринге заставляет его подвергнуть сомнению всё, во что он верит.

Рейтинг MPAA: R (лицам до 17 лет обязательно присутствие взрослого)
Продолжительность: 01:30:13
Перевод: Многоголосый закадровый, профессиональный (iTunes)
Файл:
Качество видео: BDRip
Видео: Xvid, 704x384, ~1861 kbps
Аудио: AC3, 6 ch, 384 kbps
Субтитры: Oтсутствуют

Mediainfo:

Boyka.Undisputed.2016.BDRip.avi
Формат : AVI
Формат/Информация : Audio Video Interleave
Размер файла : 1,42 Гбайт
Продолжительность : 1 ч. 30 м.
Общий поток : 2254 Кбит/сек
Программа кодирования : VirtualDubMod 1.5.10.2 (build 2540/release)
Библиотека кодирования : VirtualDubMod build 2540/release
Видео
Идентификатор : 0
Формат : MPEG-4 Visual
Профиль формата : Advanced Simple@L5
Настройки формата : BVOP1 / Custom Matrix
Параметр BVOP формата : 1
Параметр QPel формата : Нет
Параметр GMC формата : Без точки перехода
Параметр матрицы формата : Выборочная
Идентификатор кодека : XVID
Идентификатор кодека/Подсказка : XviD
Продолжительность : 1 ч. 30 м.
Битрейт : 1861 Кбит/сек
Ширина : 704 пикселя
Высота : 384 пикселя
Соотношение сторон : 1,85:1
Частота кадров : 23,976 (24000/1001) кадра/сек
Цветовое пространство : YUV
Субдискретизация насыщенности : 4:2:0
Битовая глубина : 8 бит
Тип развёртки : Прогрессивная
Метод сжатия : С потерями
Бит/(Пиксели*Кадры) : 0.287
Размер потока : 1,17 Гбайт (83%)
Библиотека кодирования : XviD 73
Аудио
Идентификатор : 1
Формат : AC-3
Формат/Информация : Audio Coding 3
Параметр Endianness формата : Big
Идентификатор кодека : 2000
Продолжительность : 1 ч. 30 м.
Вид битрейта : Постоянный
Битрейт : 384 Кбит/сек
Каналы : 6 каналов
Расположение каналов : Front: L C R, Side: L R, LFE
Частота : 48,0 КГц
Частота кадров : 31,250 кадров/сек (1536 SPF)
Битовая глубина : 16 бит
Метод сжатия : С потерями
Размер потока : 248 Мбайт (17%)
Выравнивание : Разделение по промежуткам
Продолжительность промежутка : 42 мс. (1,00 видеокадр)
Время предзагрузки промежутка : 500 мс.
ServiceKind/String : Complete Main

Скриншоты

Скриншоты:

[Цитировать]

Топик был перенесен из форума Новинки кинопроката 2016 в форум Боевик
Viktor1952



Показать сообщения:    

Текущее время: 21-Фев 01:36

Часовой пояс: UTC + 6


Вы не можете начинать темы
Вы не можете отвечать на сообщения
Вы не можете редактировать свои сообщения
Вы не можете удалять свои сообщения
Вы не можете голосовать в опросах
Вы не можете прикреплять файлы к сообщениям
Вы не можете скачивать файлы

!ВНИМАНИЕ!
Сайт не предоставляет электронные версии произведений, а занимается лишь коллекционированием и каталогизацией ссылок, присылаемых и публикуемых на форуме нашими читателями. Если вы являетесь правообладателем какого-либо представленного материала и не желаете, чтобы ссылка на него находилась в нашем каталоге, свяжитесь с нами, и мы незамедлительно удалим ее. Файлы для обмена на трекере предоставлены пользователями сайта, и администрация не несет ответственности за их содержание. Просьба не заливать файлы, защищенные авторскими правами, а также файлы нелегального содержания!