[ Сегодня идет свободное скачивание без начисления Download ]


Статистика раздачи
Скачал: [ 1 ]
 
   
 
 
 
 
Заложница 2 / Taken 2 (2012) BDRip 720p Год выпуска: 2012
Оригинальное название: Taken 2
Страна: Франция
Жанр: боевик, триллер, криминал
Возраст: 16+
Режиссер: Оливье Мегатон
В ролях: Лиам Нисон, Мэгги Грэйс, Фамке Янссен, Лиленд Орсер, Джон Грайз, Д.Б. Суини, Люк Граймс, Раде Шербеджия, Кеворк Маликян, Ален Фиглаж, Фрэнк Альварез, Мурат Тунселли, Али Йылдирим, Эргун Куйусу, Ченгиз Бозкурт, Хакан Карахан, Сарухан Сари, Наси Адигюзель
Описание: Брайану Миллсу придется расхлебывать последствия своих действий. Спасая свою дочь, он убил главаря банды, у которого — сюрприз! — есть отец по имени Мурад. Мурад жаждет отмщения, и описывается как человек, отдающий приказы, но сам никогда никому не подчиняющийся. Мурад берет в заложники Миллса с супругой, и тут уже Ким Миллс нужно будет спасать своих родителей.
Продолжительность: 01:32:07
Перевод: Дублированный
Оригинальная дорожка: нет
Качество видео: BDRip 720p Исходник: Blu-Ray Remux (1080p) Формат: mp4
Видео кодек: MPEG-4 AVC Аудио кодек: AAC
Видео: 1280x536 (2.40:1) at 23.976 fps, AVC at 3 599 kbps avg, 0.219 bit/pixel
Аудио №1 Rus: 48.0 KHz, AAC, 2 ch, 128.0 Kbps
Субтитры: нет
Навигация по главам: есть
Размер: 2.40 GiB

Log x264

avs [info]: 1280x536p 1:1 @ 24000/1001 fps (cfr)
x264 [info]: using SAR=1/1
x264 [info]: using cpu capabilities: MMX2 SSE2Fast SSSE3 Cache64
x264 [info]: profile High, level 4.1
x264 [info]: frame I:1571 Avg QP:18.17 size:112237
x264 [info]: frame P:29959 Avg QP:21.00 size: 30635
x264 [info]: frame B:101007 Avg QP:22.69 size: 13791
x264 [info]: consecutive B-frames: 2.9% 3.6% 8.6% 20.1% 16.4% 43.2% 5.2%
x264 [info]: mb I I16..4: 6.5% 77.6% 15.9%
x264 [info]: mb P I16..4: 2.0% 15.6% 1.5% P16..4: 40.8% 19.0% 12.9% 0.0% 0.0% skip: 8.2%
x264 [info]: mb B I16..4: 0.1% 2.3% 0.1% B16..8: 46.5% 8.6% 2.0% direct: 6.9% skip:33.4% L0:46.2% L1:47.2% BI: 6.5%
x264 [info]: 8x8 transform intra:83.1% inter:69.4%
x264 [info]: coded y,uvDC,uvAC intra: 82.7% 81.2% 52.9% inter: 29.3% 31.6% 2.1%
x264 [info]: i16 v,h,dc,p: 40% 20% 9% 31%
x264 [info]: i8 v,h,dc,ddl,ddr,vr,hd,vl,hu: 15% 13% 31% 6% 7% 7% 7% 7% 8%
x264 [info]: i4 v,h,dc,ddl,ddr,vr,hd,vl,hu: 21% 18% 15% 6% 9% 8% 9% 6% 6%
x264 [info]: i8c dc,h,v,p: 53% 19% 19% 9%
x264 [info]: Weighted P-Frames: Y:5.8% UV:2.8%
x264 [info]: ref P L0: 49.7% 11.7% 17.0% 5.9% 4.5% 3.3% 2.8% 1.5% 1.3% 1.1% 1.1% 0.1% 0.0%
x264 [info]: ref B L0: 77.0% 10.8% 4.8% 2.1% 1.5% 1.1% 1.5% 0.5% 0.4% 0.1%
x264 [info]: ref B L1: 94.4% 5.6%
x264 [info]: kb/s:3599.32
encoded 132537 frames, 1.45 fps, 3599.32 kb/s

MI

General
Complete name : ...Zalozhnica_2_2012_KinoGadget.mp4
Format : MPEG-4
Format profile : Base Media
Codec ID : isom (isom)
File size : 2.40 GiB
Duration : 1 h 32 min
Overall bit rate mode : Variable
Overall bit rate : 3 735 kb/s
Movie name : Заложница 2 | KinoGadget
Performer : Оливье Мегатон
Director : Оливье Мегатон
Actor : Лиам Нисон / Мэгги Грэйс / Фамке Янссен / Лиленд Орсер / Джон Грайз / Д.Б. Суини / Люк Граймс / Раде Шербеджия / Кеворк Маликян / Ален Фиглаж / Фрэнк Альварез / Мурат Тунселли / Али Йылдирим / Эргун Куйусу / Ченгиз Бозкурт / Хакан Карахан / Сарухан Сари / Наси Адигюзель
Screenplay by : Люк Бессон / Роберт Марк Кэмен
Producer : Люк Бессон / Дилой Гюлюн / Мишель Мандавилль
Genre : Action, Thriller
ContentType : Short Film
Recorded date : 2012
Encoded date : UTC 2017-10-31 09:51:26
Tagged date : UTC 2017-10-31 10:06:04
Cover : Yes
ContentRating : mpaa|PG-13|300|
LongDeion : Брайану Миллсу придется расхлебывать последствия своих действий. Спасая свою дочь, он убил главаря банды, у которого — сюрприз! — есть отец по имени Мурад. Мурад жаждет отмщения, и описывается как человек, отдающий приказы, но сам никогда никому не подчиняющийся. Мурад берет в заложники Миллса с супругой, и тут уже Ким Миллс нужно будет спасать своих родителей.
HDVideo : Yes
Video
ID : 1
Format : AVC
Format/Info : Advanced Video Codec
Format profile : High@L4.1
Format settings, CABAC : Yes
Format settings, ReFrames : 11 frames
Codec ID : avc1
Codec ID/Info : Advanced Video Coding
Duration : 1 h 32 min
Bit rate : 3 599 kb/s
Maximum bit rate : 17.3 Mb/s
Width : 1 280 pixels
Height : 536 pixels
Display aspect ratio : 2.40:1
Frame rate mode : Constant
Frame rate : 23.976 (24000/1001) FPS
Color space : YUV
Chroma subsampling : 4:2:0
Bit depth : 8 bits
Scan type : Progressive
Bits/(Pixel*Frame) : 0.219
Stream size : 2.32 GiB (96%)
Writing library : x264 core 148 r2744 b97ae06
Encoding settings : cabac=1 / ref=11 / deblock=1:-2:-1 / analyse=0x3:0x113 / me=umh / subme=7 / psy=1 / psy_rd=1.00:0.00 / mixed_ref=1 / me_range=32 / chroma_me=1 / trellis=2 / 8x8dct=1 / cqm=0 / deadzone=21,11 / fast_pskip=0 / chroma_qp_offset=-2 / threads=3 / lookahead_threads=1 / sliced_threads=0 / nr=0 / decimate=1 / interlaced=0 / bluray_compat=0 / constrained_intra=0 / bframes=6 / b_pyramid=2 / b_adapt=2 / b_bias=0 / direct=1 / weightb=1 / open_gop=0 / weightp=2 / keyint=250 / keyint_min=25 / scenecut=40 / intra_refresh=0 / rc_lookahead=60 / rc=crf / mbtree=1 / crf=20.0 / qcomp=0.60 / qpmin=0 / qpmax=69 / qpstep=4 / vbv_maxrate=62500 / vbv_bufsize=78125 / crf_max=0.0 / nal_hrd=none / filler=0 / ip_ratio=1.40 / aq=1:1.00
Encoded date : UTC 2017-10-31 09:15:03
Tagged date : UTC 2017-10-31 09:53:31
Audio
ID : 2
Format : AAC
Format/Info : Advanced Audio Codec
Format profile : LC
Codec ID : 40
Duration : 1 h 32 min
Bit rate mode : Variable
Bit rate : 128 kb/s
Maximum bit rate : 135 kb/s
Channel(s) : 2 channels
Channel positions : Front: L R
Sampling rate : 48.0 kHz
Frame rate : 46.875 FPS (1024 spf)
Compression mode : Lossy
Stream size : 84.4 MiB (3%)
Language : Russian
Encoded date : UTC 2017-10-31 09:19:50
Tagged date : UTC 2017-10-31 09:53:31
Menu
00:00:00.000 : 00:00:00.000
00:04:18.424 : 00:04:18.424
00:07:24.694 : 00:07:24.694
00:08:51.280 : 00:08:51.280
00:12:45.389 : 00:12:45.389
00:16:01.669 : 00:16:01.669
00:19:41.179 : 00:19:41.179
00:22:06.283 : 00:22:06.283
00:25:10.926 : 00:25:10.926
00:30:22.946 : 00:30:22.946
00:34:48.169 : 00:34:48.169
00:38:06.992 : 00:38:06.992
00:41:31.322 : 00:41:31.322
00:45:37.985 : 00:45:37.985
00:50:35.991 : 00:50:35.991
00:56:38.853 : 00:56:38.853
01:00:21.617 : 01:00:21.617
01:04:41.252 : 01:04:41.252
01:07:06.939 : 01:07:06.939
01:10:28.265 : 01:10:28.265
01:15:44.831 : 01:15:44.831
01:19:28.471 : 01:19:28.471
01:23:06.648 : 01:23:06.648
01:26:02.824 : 01:26:02.824

Сиквелы & приквелы

Заложница 2 (2012)
Заложница 3 (2014)

Скриншоты

Данный рип предназначен для просмотра на мобильных гаджетах с поддержкой формата mp4

[Цитировать]

Топик был перенесен из форума Зарубежное кино (HD Video) в форум Видео для iPhone, iPod, iPad
D-r Woland_kz



Показать сообщения:    

Текущее время: 16-Дек 18:58

Часовой пояс: UTC + 6


Вы не можете начинать темы
Вы не можете отвечать на сообщения
Вы не можете редактировать свои сообщения
Вы не можете удалять свои сообщения
Вы не можете голосовать в опросах
Вы не можете прикреплять файлы к сообщениям
Вы не можете скачивать файлы

!ВНИМАНИЕ!
Сайт не предоставляет электронные версии произведений, а занимается лишь коллекционированием и каталогизацией ссылок, присылаемых и публикуемых на форуме нашими читателями. Если вы являетесь правообладателем какого-либо представленного материала и не желаете, чтобы ссылка на него находилась в нашем каталоге, свяжитесь с нами, и мы незамедлительно удалим ее. Файлы для обмена на трекере предоставлены пользователями сайта, и администрация не несет ответственности за их содержание. Просьба не заливать файлы, защищенные авторскими правами, а также файлы нелегального содержания!