[ Сегодня идет свободное скачивание без начисления Download ]


Статистика раздачи
Нет
 
   
 
Top  
 
 
Убить Билла: Дилогия / Kill Bill: Dilogy- -Название: Убить Билла. Дилогия
Оригинальное название: Kill Bill. Dilogy
Год выпуска: 2003-2004
Жанр: Боевик, триллер, криминал, драма
Выпущено: США, Gaga Humax, A Band Apart, Miramax Films, Super Cool ManChu
Продолжительность: 01:50:43 | 02:16:57
Перевод: Дублированный, профессиональный многоголосый-Режиссер: Квентин Тарантино-В ролях: Ума Турман, Люси Лью, Вивика А. Фокс, Дэрил Ханна, Дэвид Кэрредин, Гордон Лиу, Майкл Мэдсен, Джули Дрейфус, Чиаки Курияма, Сонни Чиба, Майкл Паркс, Майкл Боуэн, Дзюн Кунимура, Кенджи Охба, Юки Казаматсури, Джеймс Паркс, Сакичи Сато, Джонатан Лоугрэн, Йошиюки Моришита, Тетсуро Шимагучи, Казуки Китамура, Ёдзи Танака, Иссей Такахаши, Сатоши Яманака, Акадзи Маро, Амброзия Келли, Хикару Мидорикава, Крис Нельсон-О фильмах:
Убить Билла / Kill Bill: Vol. 1 (2003): В беременную наемную убийцу по кличке Черная Мамба во время бракосочетания стреляет человек по имени Билл. Пуля в голове жертвы, кровь на подвенечном платье, темнота… Но голова у Черной Мамбы оказалась крепкой. Пролежав четыре года в коме, Невеста приходит в себя. Она горит желанием найти тех, кто ее предал. Теперь только безжалостная месть успокоит сердце Черной Мамбы, и она начинает убивать поочередно всех членов банды Билла, оставляя главаря напоследок.- -Убить Билла 2 / Kill Bill: Vol. 2 (2004): Вычеркнув двоих из смертельного списка, Невеста лишь наполовину приблизилась к цели. Теперь на очереди Бад и Элли Драйвер, уже приговоренные воскресшей жертвой! Еще два опасных шага перед последней схваткой, в которой она должна Убить Билла!..- -Качество: HDRip
Видео: XviD, 1871 Кбит/с | 1733 Кбит/с, 720x304, 23.976 кадр/с
Убить Билла / Kill Bill: Vol. 1 (2003):
Аудио 1: АС3, 6 ch, 448 Кбит/с - дубляж
Аудио 2: AC3, 6 ch, 384 Кбит/с - профессиональный многоголосый
Убить Билла 2 / Kill Bill: Vol. 2 (2004):
Аудио: АС3, 6 ch, 448 Кбит/с - дубляж-Релиз: Kinozal.TV
-

MediaInfo Убить Билла / Kill Bill: Vol. 1 (2003):

Формат : AVI
Формат/Информация : Audio Video Interleave
Размер файла : 2,19 Гбайт
Продолжительность : 1 ч. 50 м.
Общий поток : 2826 Кбит/сек
Программа кодирования : VirtualDubMod 1.5.10.2 (build 2540/release)
Библиотека кодирования : VirtualDubMod build 2540/release
Видео
Идентификатор : 0
Формат : MPEG-4 Visual
Профиль формата : Advanced Simple@L5
Параметр BVOP формата : 3
Параметр QPel формата : Нет
Параметр GMC формата : Без точки перехода
Параметр матрицы формата : Default (MPEG)
Идентификатор кодека : XVID
Идентификатор кодека/Подсказка : XviD
Продолжительность : 1 ч. 50 м.
Битрейт : 1871 Кбит/сек
Ширина : 720 пикселей
Высота : 304 пикселя
Соотношение сторон : 2,35:1
Частота кадров : 23,976 кадра/сек
Цветовое пространство : YUV
Субдискретизация насыщенности : 4:2:0
Битовая глубина : 8 бит
Тип развёртки : Прогрессивная
Метод сжатия : С потерями
Бит/(Пиксели*Кадры) : 0.357
Размер потока : 1,45 Гбайт (66%)
Библиотека кодирования : XviD 1.2.1 (UTC 2008-12-04)
Аудио #1
Идентификатор : 1
Формат : AC-3
Формат/Информация : Audio Coding 3
Расширение режима : CM (complete main)
Идентификатор кодека : 2000
Продолжительность : 1 ч. 50 м.
Вид битрейта : Постоянный
Битрейт : 448 Кбит/сек
Каналы : 6 каналов
Расположение каналов : Front: L C R, Side: L R, LFE
Частота : 48,0 КГц
Битовая глубина : 16 бит
Метод сжатия : С потерями
Размер потока : 355 Мбайт (16%)
Выравнивание : Разделение по промежуткам
Аудио #2
Идентификатор : 2
Формат : AC-3
Формат/Информация : Audio Coding 3
Расширение режима : CM (complete main)
Идентификатор кодека : 2000
Продолжительность : 1 ч. 47 м.
Вид битрейта : Постоянный
Битрейт : 384 Кбит/сек
Каналы : 6 каналов
Расположение каналов : Front: L C R, Side: L R, LFE
Частота : 48,0 КГц
Битовая глубина : 16 бит
Метод сжатия : С потерями
Размер потока : 296 Мбайт (13%)
Выравнивание : Разделение по промежуткам

MediaInfo Убить Билла / Kill Bill: Vol. 2 (2004):

Формат : AVI
Формат/Информация : Audio Video Interleave
Размер файла : 2,18 Гбайт
Продолжительность : 2 ч. 16 м.
Общий поток : 2280 Кбит/сек
Программа кодирования : VirtualDubMod 1.5.10.2 (build 2540/release)
Библиотека кодирования : VirtualDubMod build 2540/release
Видео
Идентификатор : 0
Формат : MPEG-4 Visual
Профиль формата : Advanced Simple@L5
Параметр BVOP формата : 3
Параметр QPel формата : Нет
Параметр GMC формата : Без точки перехода
Параметр матрицы формата : Default (MPEG)
Идентификатор кодека : XVID
Идентификатор кодека/Подсказка : XviD
Продолжительность : 2 ч. 16 м.
Битрейт : 1733 Кбит/сек
Ширина : 720 пикселей
Высота : 304 пикселя
Соотношение сторон : 2,35:1
Частота кадров : 23,976 кадра/сек
Цветовое пространство : YUV
Субдискретизация насыщенности : 4:2:0
Битовая глубина : 8 бит
Тип развёртки : Прогрессивная
Метод сжатия : С потерями
Бит/(Пиксели*Кадры) : 0.330
Размер потока : 1,66 Гбайт (76%)
Библиотека кодирования : XviD 1.2.1 (UTC 2008-12-04)
Аудио
Идентификатор : 1
Формат : AC-3
Формат/Информация : Audio Coding 3
Расширение режима : CM (complete main)
Идентификатор кодека : 2000
Продолжительность : 2 ч. 16 м.
Вид битрейта : Постоянный
Битрейт : 448 Кбит/сек
Каналы : 6 каналов
Расположение каналов : Front: L C R, Side: L R, LFE
Частота : 48,0 КГц
Битовая глубина : 16 бит
Метод сжатия : С потерями
Размер потока : 439 Мбайт (20%)
Выравнивание : Разделение по промежуткам

[Цитировать]



Показать сообщения:    

Текущее время: 17-Авг 19:50

Часовой пояс: UTC + 6


Вы не можете начинать темы
Вы не можете отвечать на сообщения
Вы не можете редактировать свои сообщения
Вы не можете удалять свои сообщения
Вы не можете голосовать в опросах
Вы не можете прикреплять файлы к сообщениям
Вы не можете скачивать файлы

!ВНИМАНИЕ!
Сайт не предоставляет электронные версии произведений, а занимается лишь коллекционированием и каталогизацией ссылок, присылаемых и публикуемых на форуме нашими читателями. Если вы являетесь правообладателем какого-либо представленного материала и не желаете, чтобы ссылка на него находилась в нашем каталоге, свяжитесь с нами, и мы незамедлительно удалим ее. Файлы для обмена на трекере предоставлены пользователями сайта, и администрация не несет ответственности за их содержание. Просьба не заливать файлы, защищенные авторскими правами, а также файлы нелегального содержания!