[ Сегодня идет свободное скачивание без начисления Download ]


Статистика раздачи
Нет
 
   
 
Top  
 
 
-Агент Хамилтон: Похищенная / Hamilton: Men inte om det galler din dotter (2012) BDRip [H.264] Русское название: Агент Хамилтон: Похищенная
Оригинальное название: Hamilton: Men inte om det galler din dotter
Год выпуска: 2012
Производство: Швеция
Жанр: Боевик, Триллер, Драма
Перевод: Многоголосый закадровый, профессиональный
Дата мировой премьеры: 7 сентября 2012
Дата выхода DVD релиза: 25 марта 2013, «Новый Диск
Режиссер: Тобиас Фальк
Актеры: Микаэл Персбрандт, Стивен Вэддингтон, Джон Лайт, Дэвид Ринтул, Кэл Макэнинк, Питер Эггерс, Милинд Соман, Найджел Уитми, Саба Мубарак
Описание фильма: Хамилтон — специальный агент, призванный решать самые невыполнимые задачи. Он всегда защищал интересы своей страны. Но когда его крестная дочь оказывается похищенной представителями ближневосточного нефтяного магната и правительство не предпринимает никаких шагов к ее освобождению, Хамилтон решает вернуть ее домой своими силами. Вместе с друзьями ему предстоит вступить в схватку с вооруженной до зубов армией и взять штурмом крепость в пустыне. Оружие уже заряжено, а Агент Хамилтон никогда не терпит поражений.

Продолжительность: 01:29:47
Качество видео: BDRip [H.264]
Видеокодек: MPEG-4 AVC/H.264
Битрейт видео: ~969 kbps
Размер кадра: 960x400
Аудиокодек: AC3 2.0
Битрейт аудио: 192.00 kbps
Сэмпл: Скачать
&

MediaInfo

Общее
Уникальный идентификатор : 220105726869195930115896590318671619044 (0xA596D22F13EAE44B883BD6989BA5E3E4)
Полное имя : F:\Роздачи\Hamilton 2 Men Inte Om Det Galler Din Dotter.BDRip-AVC.mkv
Формат : Matroska
Версия формата : Version 4 / Version 2
Размер файла : 746 Мбайт
Продолжительность : 1 ч. 29 м.
Общий поток : 1162 Кбит/сек
Название фильма : Агент Хамилтон: Похищенная / Hamilton 2: Men Inte Om Det Galler Din Dotter (2012) BDRip-AVC rip by Rulya74
Дата кодирования : UTC 2013-03-29 04:09:30
Программа кодирования : mkvmerge v6.1.0 ('Old Devil') built on Mar 2 2013 14:32:37
Библиотека кодирования : libebml v1.3.0 + libmatroska v1.4.0
Видео
Идентификатор : 1
Формат : AVC
Формат/Информация : Advanced Video Codec
Профиль формата : High@L4.1
Параметр CABAC формата : Да
Параметр ReFrames формата : 9 кадров
Идентификатор кодека : V_MPEG4/ISO/AVC
Продолжительность : 1 ч. 29 м.
Битрейт : 969 Кбит/сек
Ширина : 960 пикселей
Высота : 400 пикселей
Соотношение сторон : 2,40:1
Режим частоты кадров : Постоянный
Частота кадров : 24,000 кадра/сек
Цветовое пространство : YUV
Субдискретизация насыщенности : 4:2:0
Битовая глубина : 8 бит
Тип развёртки : Прогрессивная
Бит/(Пиксели*Кадры) : 0.105
Размер потока : 608 Мбайт (81%)
Библиотека кодирования : x264 core 130 r2273 b3065e6
Настройки программы : cabac=1 / ref=9 / deblock=1:-2:-1 / analyse=0x3:0x133 / me=umh / subme=9 / psy=1 / psy_rd=1.22:0.05 / mixed_ref=1 / me_range=32 / chroma_me=1 / trellis=2 / 8x8dct=1 / cqm=0 / deadzone=21,11 / fast_pskip=0 / chroma_qp_offset=-3 / threads=11 / lookahead_threads=1 / sliced_threads=0 / nr=0 / decimate=1 / interlaced=0 / bluray_compat=0 / constrained_intra=0 / bframes=5 / b_pyramid=2 / b_adapt=2 / b_bias=0 / direct=3 / weightb=1 / open_gop=0 / weightp=2 / keyint=240 / keyint_min=22 / scenecut=40 / intra_refresh=0 / rc_lookahead=40 / rc=2pass / mbtree=1 / bitrate=969 / ratetol=1.0 / qcomp=0.60 / qpmin=0 / qpmax=69 / qpstep=4 / cplxblur=20.0 / qblur=0.5 / vbv_maxrate=62500 / vbv_bufsize=78125 / nal_hrd=none / ip_ratio=1.40 / aq=1:1.00
Default : Да
Forced : Нет
Аудио
Идентификатор : 2
Формат : AC-3
Формат/Информация : Audio Coding 3
Расширение режима : CM (complete main)
Параметр Endianness формата : Big
Идентификатор кодека : A_AC3
Продолжительность : 1 ч. 29 м.
Вид битрейта : Постоянный
Битрейт : 192 Кбит/сек
Каналы : 2 канала
Расположение каналов : Front: L R
Частота : 48,0 КГц
Битовая глубина : 16 бит
Метод сжатия : С потерями
Размер потока : 123 Мбайт (17%)
Заголовок : Профессиональный (многоголосый закадровый)
Язык : Russian
Default : Да
Forced : Нет
Скриншоты:

Время раздачи: с 9:00 до 24:00

[Цитировать]

Топик был перенесен из форума Новинки кинопроката в форум Боевик
Henkok



Показать сообщения:    

Текущее время: 27-Июл 14:47

Часовой пояс: UTC + 6


Вы не можете начинать темы
Вы не можете отвечать на сообщения
Вы не можете редактировать свои сообщения
Вы не можете удалять свои сообщения
Вы не можете голосовать в опросах
Вы не можете прикреплять файлы к сообщениям
Вы не можете скачивать файлы

!ВНИМАНИЕ!
Сайт не предоставляет электронные версии произведений, а занимается лишь коллекционированием и каталогизацией ссылок, присылаемых и публикуемых на форуме нашими читателями. Если вы являетесь правообладателем какого-либо представленного материала и не желаете, чтобы ссылка на него находилась в нашем каталоге, свяжитесь с нами, и мы незамедлительно удалим ее. Файлы для обмена на трекере предоставлены пользователями сайта, и администрация не несет ответственности за их содержание. Просьба не заливать файлы, защищенные авторскими правами, а также файлы нелегального содержания!