[ Сегодня идет свободное скачивание без начисления Download ]


Статистика раздачи
Скачал: [ 4 ]
 
   
 
 
 
 
Дом на холодном ключе [01-04 из 04] (2016) WEB-DLRip 1080p Информация о фильме
Название: Дом на холодном ключе
Год выхода: 2016
Жанр: Детектив, мелодрама
Режиссер: Тарас Дударь
В ролях: Марина Коняшкина, Павел Баршак, Виктория Скицкая, Оксана Архангельская, Влад Никитюк, Александр Крыжановский, Сергей Чекерес, Елизавета Зайцева, Дмитрий Лаленков
О фильме:
Марина Коняшкина («Заложница», «Завтрак в постель», «Коготь из Мавритании») и Павел Баршак («Ночной продавец», «Прогулка», «Игра. Реванш») в романтической мелодраме «Дом на холодном ключе» режиссера Тараса Дударя («Проводница», «Ребенок на миллион»).Арина Миронова уверена, что она сирота. Она выросла в детском доме и всегда считала родителей погибшими, пока ей не написала женщина, которая представилась ее мамой. В письме сказано, что она при смерти и хочет передать Арине все свое имущество.Арина не ей не верит и спешит во всем разобраться. Она отправляется в город Марежино, где якобы живет ее мама, чтобы добиться генетической экспертизы. Девушка находит лабораторию и знакомится в ней с Ильей, экспертом, который тоже проявляет к ней симпатию.Спустя некоторое время, проведенное в городке, Арина начинает чувствовать, что кто-то в Марежно сильно недоволен ее приездом, и готов сделать все, чтобы она поскорее уехала, не узнав правды, которая так сильно ее тревожит.

Страна: Украина
Студия: Film UA
Продолжительность: 4 х ~ 00:46:00
Перевод: Не требуется
Файл
Кодек: h.264
Качество: WEB-DLRip 1080p
Видео: MPEG-4 AVC, ~ 5120 Кбит/с, 1920x1080, 25,000 кадр/с
Звук: Русский (AC3, 2 ch, 256 Кбит/с)
Субтитры: Нет
Семпл

MI

General
Unique ID : 239061234168416200410457223578898328786 (0xB3D984D96DF94D5DA73B944A8E52ECD2)
Complete name : D:uTorrentDom.na.holodnom.kljuche.2016.WEB-DLRip.1080p.MediaClubDom.na.holodnom.kljuche.(01.iz.04).2016.WEB-DLRip.1080p.MediaClub.mkv
Format : Matroska
Format version : Version 4 / Version 2
File size : 1.80 GiB
Duration : 47 min 47 s
Overall bit rate : 5 377 kb/s
Encoded date : UTC 2017-11-03 21:20:08
Writing application : mkvmerge v17.0.0 ('Be Ur Friend') 64-bit
Writing library : libebml v1.3.5 + libmatroska v1.4.8
Video
ID : 1
Format : AVC
Format/Info : Advanced Video Codec
Format profile : High@L4
Format settings : CABAC / 4 Ref Frames
Format settings, CABAC : Yes
Format settings, RefFrames : 4 frames
Codec ID : V_MPEG4/ISO/AVC
Duration : 47 min 47 s
Bit rate : 5 120 kb/s
Width : 1 920 pixels
Height : 1 080 pixels
Display aspect ratio : 16:9
Frame rate mode : Constant
Frame rate : 25.000 FPS
Color space : YUV
Chroma subsampling : 4:2:0
Bit depth : 8 bits
Scan type : Progressive
Bits/(Pixel*Frame) : 0.099
Stream size : 1.71 GiB (95%)
Title : WEB-DLRip by Silverok
Writing library : x264 core 142
Encoding settings : cabac=1 / ref=3 / deblock=1:0:0 / analyse=0x3:0x113 / me=hex / subme=7 / psy=1 / psy_rd=1.00:0.00 / mixed_ref=1 / me_range=16 / chroma_me=1 / trellis=1 / 8x8dct=1 / cqm=0 / deadzone=21,11 / fast_pskip=1 / chroma_qp_offset=-2 / threads=108 / lookahead_threads=8 / sliced_threads=0 / nr=0 / decimate=1 / interlaced=0 / bluray_compat=0 / constrained_intra=0 / bframes=6 / b_pyramid=2 / b_adapt=1 / b_bias=0 / direct=1 / weightb=1 / open_gop=0 / weightp=2 / keyint=50 / keyint_min=26 / scenecut=0 / intra_refresh=0 / rc_lookahead=40 / rc=2pass / mbtree=1 / bitrate=5120 / ratetol=1.0 / qcomp=0.60 / qpmin=0 / qpmax=69 / qpstep=4 / cplxblur=20.0 / qblur=0.5 / vbv_maxrate=7680 / vbv_bufsize=20480 / nal_hrd=none / filler=0 / ip_ratio=1.40 / aq=1:1.00
Default : Yes
Forced : No
Audio
ID : 2
Format : AC-3
Format/Info : Audio Coding 3
Codec ID : A_AC3
Duration : 47 min 47 s
Bit rate mode : Constant
Bit rate : 256 kb/s
Channel(s) : 2 channels
Channel positions : Front: L R
Sampling rate : 48.0 kHz
Frame rate : 31.250 FPS (1536 SPF)
Bit depth : 16 bits
Compression mode : Lossy
Stream size : 87.5 MiB (5%)
Language : Russian
Service kind : Complete Main
Default : Yes
Forced : No

Скриншоты

[Цитировать]



Показать сообщения:    

Текущее время: 22-Фев 22:43

Часовой пояс: UTC + 6


Вы не можете начинать темы
Вы не можете отвечать на сообщения
Вы не можете редактировать свои сообщения
Вы не можете удалять свои сообщения
Вы не можете голосовать в опросах
Вы не можете прикреплять файлы к сообщениям
Вы не можете скачивать файлы

!ВНИМАНИЕ!
Сайт не предоставляет электронные версии произведений, а занимается лишь коллекционированием и каталогизацией ссылок, присылаемых и публикуемых на форуме нашими читателями. Если вы являетесь правообладателем какого-либо представленного материала и не желаете, чтобы ссылка на него находилась в нашем каталоге, свяжитесь с нами, и мы незамедлительно удалим ее. Файлы для обмена на трекере предоставлены пользователями сайта, и администрация не несет ответственности за их содержание. Просьба не заливать файлы, защищенные авторскими правами, а также файлы нелегального содержания!