[ Сегодня идет свободное скачивание без начисления Download ]


Статистика раздачи
Качаю: [ 1 ]
Скачал: [ 11 ]
 
   
 
 
 
 
Шанхайский перевозчик
S.M.A.R.T. Chase

-
- Информация:
Год выпуска: 2017
Производство: США
Жанр: Боевик, комедия, приключения
Режиссер: Чарльз Мартин
Актеры: Орландо Блум, У Лэй, Саймон Ям, Линн Хун, Ханна Куинливан, Син Юй, Том Прайс, Лян Цзин, Ин Да, Чан Жун
Описание:
Частный агент безопасности сопровождает посылку с антиквариатом из Шанхая и по пути попадает в засаду.

Мировая премьера: 30 сентября 2017
Продолжительность: 01:29:40
Перевод: Дублированный (iTunes)
Файл:
Качество: WEB-DL 1080p
Контейнер: M4V
Видео: H.264, 1920x802, 2.40:1, 4 537 Kbps, 25.000 fps
Аудио 1: Русский / Дублированный (iTunes), AAC / 2.0 / 160 Kbps / 48.0 KHz
Аудио 2: Русский / Дублированный (iTunes), AC-3 / 5.1 / 384 Kbps / 48.0 KHz
Субтитры: Нет

iTunes Meta Tags

Sort Name: Шанхайский перевозчик
XID: Apple:vendor_id:2017-986858
contentID: 1305234979
Copyright: © 2017 Парадиз
Screenwriters: Кевин Бернхардт
Producers: Хань Вэй, Бен Паг, Тим Коул
Director: Чарльз Мартин
Cast: Орландо Блум, У Лэй, Саймон Ям, Линн Хун, Ханна Куинливан, Син Юй, Том Прайс, Лян Цзин, Ин Да, Чан Жун
Studio: Bliss Media
Rating: 135
Long Description: Частный агент безопасности сопровождает посылку с антиквариатом из Шанхая и по пути попадает в засаду.
Description: Частный агент безопасности сопровождает посылку с антиквариатом из Шанхая и по пути попадает в засаду.
Release Date: 2017-09-30T08:00:00Z
Genre: Action & Adventure
Artist: Чарльз Мартин
Name: Шанхайский перевозчик

MediaInfo

Код: выделить все
General
Complete name : /Users/imac/HandBrake/SMART.Chase.WEB-DL.1080p.m4v
Format : MPEG-4
Codec ID : M4V
File size : 3.19 GiB
Duration : 1h 29mn
Overall bit rate mode : Variable
Overall bit rate : 5 086 Kbps
Movie name : Шанхайский перевозчик
Performer : Чарльз Мартин
Director : Чарльз Мартин
Actor : Орландо Блум / У Лэй / Саймон Ям / Линн Хун / Ханна Куинливан / Син Юй / Том Прайс / Лян Цзин / Ин Да / Чан Жун
Screenplay by : Кевин Бернхардт
Producer : Хань Вэй / Бен Паг / Тим Коул
Production studio : Bliss Media
Genre : Action & Adventure
ContentType : Short Film
Description : Частный агент безопасности сопровождает посылку с антиквариатом из Шанхая и по пути попадает в засаду.
Recorded date : UTC 2017-09-30 08:00:00
Encoded date : UTC 2017-11-10 10:14:16
Tagged date : UTC 2017-11-10 10:33:55
Copyright : © 2017 Парадиз
Cover : Yes
Rating : None
Title/Sort : Шанхайский перевозчик
LongDescription : Частный агент безопасности сопровождает посылку с антиквариатом из Шанхая и по пути попадает в засаду.
AppleStoreCatalogID : 1305234979
Vendor : Apple:vendor_id:2017-986858
ContentRating : ru-movie|16+|375|
Video #1
ID : 1
Format : AVC
Format/Info : Advanced Video Codec
Format profile : High@L4
Format settings, CABAC : Yes
Format settings, ReFrames : 5 frames
Codec ID : avc1
Codec ID/Info : Advanced Video Coding
Duration : 1h 29mn
Bit rate : 4 537 Kbps
Width : 1 920 pixels
Height : 802 pixels
Display aspect ratio : 2.40:1
Frame rate mode : Constant
Frame rate : 25.000 fps
Color space : YUV
Chroma subsampling : 4:2:0
Bit depth : 8 bits
Scan type : Progressive
Bits/(Pixel*Frame) : 0.118
Stream size : 2.84 GiB (89%)
Title : Main Program
Language : English
Encoded date : UTC 2017-11-10 10:14:16
Tagged date : UTC 2017-11-10 10:14:21
Color range : Limited
Color primaries : BT.709
Transfer characteristics : BT.709
Matrix coefficients : BT.709
Video #2
ID : 5
Format : JPEG
Codec ID : jpeg
Duration : 1h 29mn
Bit rate mode : Variable
Bit rate : 1 067 bps
Width : 640 pixels
Height : 267 pixels
Display aspect ratio : 2.40:1
Frame rate mode : Variable
Frame rate : 0.003 fps
Minimum frame rate : 0.002 fps
Maximum frame rate : 0.004 fps
Color space : YUV
Chroma subsampling : 4:2:0
Bit depth : 8 bits
Compression mode : Lossy
Bits/(Pixel*Frame) : 2.081
Stream size : 651 KiB (0%)
Title : Chapter Images
Language : English
Encoded date : UTC 2017-11-10 10:14:29
Tagged date : UTC 2017-11-10 10:14:29
Audio #1
ID : 2
Format : AAC
Format/Info : Advanced Audio Codec
Format profile : LC
Codec ID : 40
Duration : 1h 29mn
Bit rate mode : Variable
Bit rate : 157 Kbps
Maximum bit rate : 225 Kbps
Channel(s) : 2 channels
Channel positions : Front: L R
Sampling rate : 48.0 KHz
Compression mode : Lossy
Stream size : 101 MiB (3%)
Title : Russian Stereo
Language : Russian
Encoded date : UTC 2017-11-10 10:14:16
Tagged date : UTC 2017-11-10 10:14:23
Audio #2
ID : 3
Format : AC-3
Format/Info : Audio Coding 3
Mode extension : CM (complete main)
Format settings, Endianness : Big
Codec ID : ac-3
Duration : 1h 29mn
Bit rate mode : Constant
Bit rate : 384 Kbps
Channel(s) : 6 channels
Channel positions : Front: L C R, Side: L R, LFE
Sampling rate : 48.0 KHz
Bit depth : 16 bits
Compression mode : Lossy
Stream size : 246 MiB (8%)
Title : Russian DD 5.1
Language : Russian
Encoded date : UTC 2017-11-10 10:14:16
Tagged date : UTC 2017-11-10 10:14:21
Menu #1
00:00:00.000 : 1
00:07:44.600 : 2
00:12:22.800 : 3
00:16:32.240 : 4
00:22:33.080 : 5
00:28:27.840 : 6
00:34:10.120 : 7
00:40:34.520 : 8
00:45:39.080 : 9
00:51:44.200 : 10
00:57:03.720 : 11
01:01:14.560 : 12
01:06:50.240 : 14
01:12:45.920 : 15
01:18:44.600 : 16
Menu #2
ID : 6
Codec ID : text
Duration : 1h 29mn
Encoded date : UTC 2017-11-10 10:22:03
Tagged date : UTC 2017-11-10 10:22:03
00:00:00.000 : 1
00:07:44.600 : 2
00:12:22.800 : 3
00:16:32.240 : 4
00:22:33.080 : 5
00:28:27.840 : 6
00:34:10.120 : 7
00:40:34.520 : 8
00:45:39.080 : 9
00:51:44.200 : 10
00:57:03.720 : 11
01:01:14.560 : 12
01:06:50.240 : 14
01:12:45.920 : 15
01:18:44.600 : 16
Bit rate mode : VBR

Скриншоты

[Цитировать]



Показать сообщения:    

Текущее время: 23-Фев 18:37

Часовой пояс: UTC + 6


Вы не можете начинать темы
Вы не можете отвечать на сообщения
Вы не можете редактировать свои сообщения
Вы не можете удалять свои сообщения
Вы не можете голосовать в опросах
Вы не можете прикреплять файлы к сообщениям
Вы не можете скачивать файлы

!ВНИМАНИЕ!
Сайт не предоставляет электронные версии произведений, а занимается лишь коллекционированием и каталогизацией ссылок, присылаемых и публикуемых на форуме нашими читателями. Если вы являетесь правообладателем какого-либо представленного материала и не желаете, чтобы ссылка на него находилась в нашем каталоге, свяжитесь с нами, и мы незамедлительно удалим ее. Файлы для обмена на трекере предоставлены пользователями сайта, и администрация не несет ответственности за их содержание. Просьба не заливать файлы, защищенные авторскими правами, а также файлы нелегального содержания!