[ Сегодня идет свободное скачивание без начисления Download ]


Статистика раздачи
Скачал: [ 2 ]
 
   
 
 
 
 
Реальный Рокки
The Bleeder
- Информация:
Производство: США, Campbell Grobman Films, Jeff Rice Films, Mike Tollin Productions
Жанр: драма, биография, спорт
Режиссер: Филипп Фалардо
Актеры: Элизабет Мосс, Наоми Уоттс, Лив Шрайбер, Рон Перлман, Майкл Рапапорт, Сэди Синк, Морган Спектор, Пуч Холл, Джим Гэффиган, Джейсон Джонс
Описание:
История Чака Уэпнера — человека, по образу которого был создан персонаж Рокки Бальбоа. Уэпнер был обычным отцом семейства и продавцом ликёра со скромными успехами в профессиональном боксе. Всё изменилось в 1975 году, после его встречи на ринге с абсолютным чемпионом мира в тяжёлом весе — Мохаммедом Али.


Рейтинг MPAA: R (лицам до 17 лет обязательно присутствие взрослого)
Дата мировой премьеры: 2 сентября 2016
Дата премьеры в России: 19 октября 2017
Продолжительность: 01:38:24
Перевод: Профессиональный многоголосый (Официальный звук)
Файл:
Качество видео: HDRip
Видео: Xvid, 720x400, ~1599 kbps
Аудио: AC-3, 48.0 KHz, 2 ch, 384 Kbps
Субтитры: Отсутствуют

MediaInfo:

Общее
Полное имя : D:\Realniy.Rokky.2016.P.HDRip.NNM-CLUB.avi
Формат : AVI
Формат/Информация : Audio Video Interleave
Размер файла : 1,37 Гбайт
Продолжительность : 1 ч. 38 м.
Общий поток : 1992 Кбит/сек
Программа кодирования : VirtualDubMod 1.5.10.3 | www.virtualdub-fr.org || (build 2550/release)
Библиотека кодирования : VirtualDubMod build 2550/release
Видео
Идентификатор : 0
Формат : MPEG-4 Visual
Профиль формата : Advanced Simple@L5
Параметр BVOP формата : 1
Параметр QPel формата : Нет
Параметр GMC формата : Без точки перехода
Параметр матрицы формата : Выборочная
Идентификатор кодека : XVID
Идентификатор кодека/Подсказка : XviD
Продолжительность : 1 ч. 38 м.
Битрейт : 1599 Кбит/сек
Ширина : 720 пикселей
Высота : 400 пикселей
Соотношение сторон : 16:9
Частота кадров : 23,976 (23976/1000) кадра/сек
Цветовое пространство : YUV
Субдискретизация насыщенности : 4:2:0
Битовая глубина : 8 бит
Тип развёртки : Прогрессивная
Метод сжатия : С потерями
Бит/(Пиксели*Кадры) : 0.232
Размер потока : 1,10 Гбайт (80%)
Библиотека кодирования : XviD 1.2.1 (UTC 2008-12-04)
Аудио
Идентификатор : 1
Формат : AC-3
Формат/Информация : Audio Coding 3
Расширение режима : CM (complete main)
Параметр Endianness формата : Big
Идентификатор кодека : 2000
Продолжительность : 1 ч. 38 м.
Вид битрейта : Постоянный
Битрейт : 384 Кбит/сек
Каналы : 2 канала
Расположение каналов : Front: L R
Частота : 48,0 КГц
Частота кадров : 31,250 кадров/сек (1536 spf)
Метод сжатия : С потерями
Размер потока : 270 Мбайт (19%)
Выравнивание : Разделение по промежуткам
Продолжительность промежутка : 42 мс. (1,00 видеокадр)
Время предзагрузки промежутка : 500 мс.

Скриншоты

Скриншоты:

[Цитировать]

Топик был перенесен из форума Новинки кинопроката 2016 в форум Драма
Viktor1952



Показать сообщения:    

Текущее время: 28-Май 09:14

Часовой пояс: UTC + 6


Вы не можете начинать темы
Вы не можете отвечать на сообщения
Вы не можете редактировать свои сообщения
Вы не можете удалять свои сообщения
Вы не можете голосовать в опросах
Вы не можете прикреплять файлы к сообщениям
Вы не можете скачивать файлы

!ВНИМАНИЕ!
Сайт не предоставляет электронные версии произведений, а занимается лишь коллекционированием и каталогизацией ссылок, присылаемых и публикуемых на форуме нашими читателями. Если вы являетесь правообладателем какого-либо представленного материала и не желаете, чтобы ссылка на него находилась в нашем каталоге, свяжитесь с нами, и мы незамедлительно удалим ее. Файлы для обмена на трекере предоставлены пользователями сайта, и администрация не несет ответственности за их содержание. Просьба не заливать файлы, защищенные авторскими правами, а также файлы нелегального содержания!