[ Сегодня идет свободное скачивание без начисления Download ]


Статистика раздачи
Скачал: [ 1 ]
 
   
 
 
 
 
Оно / It Follows (2014) HDRip-AVC Информация о фильме
Название: Оно
Оригинальное название: It Follows
Год выхода: 2014
Жанр: ужасы, триллер, детектив
Режиссер: Дэвид Роберт Митчелл
В ролях: Майка Монро, Кейр Гилкрист, Оливия Луккарди, Лили Сепе, Дэниэл Дзоватто, Джейк Вири, Бэйли Спрай, Дэбби Уильямс, Руби Харрис, Леиза Пулидо
О фильме :
Когда человечество сталкивается с древним проклятьем, добром это не кончается. Но в этот раз оно оказалось куда могущественнее, чем кто-либо мог себе представить. В центре повествования находится привлекательная девушка, жизнь которой изменилась после одной злосчастной ночи. Ни в чём не повинная, она стала жертвой жуткого существа, чьё желание достаточно простое — убивать. Сможет ли героиня побороться за своё существование?

Страна: США
Студия: Animal Kingdom, Northern Lights Films, Two Flints
Продолжительность: 01:40:31
Перевод: Профессиональный (дублированный) iTunes
Файл
Формат: MKV
Качество: HDRip-AVC
Видео: MPEG-4 AVC, 768x320, ~ 963 Кбит/с
Аудио: AAC-LC, 2 ch, ~ 76 Кбит/с
Субтитры: Русские, английские

MI

Общее
Уникальный идентификатор : 173684102830717281733156295804778189034 (0x82AA57694DFBC4E0B27A67AE17A410EA)
Полное имя : D:MOVIESIt Follows.2014.ExKinoRay.mkv
Формат : Matroska
Версия формата : Version 4 / Version 2
Размер файла : 745 Мбайт
Продолжительность : 1 ч. 40 м.
Общий поток : 1040 Кбит/сек
Дата кодирования : UTC 2017-11-10 20:26:13
Программа кодирования : mkvmerge v15.0.0 ('Duel with the Devil') 64-bit
Библиотека кодирования : libebml v1.3.5 + libmatroska v1.4.5
Видео
Идентификатор : 1
Формат : AVC
Формат/Информация : Advanced Video Codec
Профиль формата : High@L4.1
Параметр CABAC формата : Да
Параметр RefFrames формата : 10 кадров
Идентификатор кодека : V_MPEG4/ISO/AVC
Продолжительность : 1 ч. 40 м.
Битрейт : 963 Кбит/сек
Ширина : 768 пикселей
Высота : 320 пикселей
Соотношение сторон : 2,40:1
Режим частоты кадров : Постоянный
Частота кадров : 23,976 (24000/1001) кадра/сек
Цветовое пространство : YUV
Субдискретизация насыщенности : 4:2:0
Битовая глубина : 8 бит
Тип развёртки : Прогрессивная
Бит/(Пиксели*Кадры) : 0.163
Размер потока : 689 Мбайт (92%)
Библиотека кодирования : x264 core 152 r2851kMod ba24899
Настройки программы : cabac=1 / ref=10 / deblock=1:-3:-2 / analyse=0x3:0x133 / me=umh / subme=11 / psy=1 / fade_compensate=0.00 / psy_rd=1.00:0.10 / mixed_ref=1 / me_range=32 / chroma_me=1 / trellis=2 / 8x8dct=1 / cqm=0 / deadzone=21,11 / fast_pskip=0 / chroma_qp_offset=-3 / threads=6 / lookahead_threads=1 / sliced_threads=0 / nr=0 / decimate=0 / interlaced=0 / bluray_compat=0 / constrained_intra=0 / bframes=10 / b_pyramid=2 / b_adapt=2 / b_bias=0 / direct=3 / weightb=1 / open_gop=0 / weightp=2 / keyint=240 / keyint_min=23 / scenecut=40 / intra_refresh=0 / rc_lookahead=40 / rc=2pass / mbtree=1 / bitrate=963 / ratetol=1.0 / qcomp=0.60 / qpmin=0 / qpmax=69 / qpstep=4 / cplxblur=20.0 / qblur=0.5 / vbv_maxrate=50000 / vbv_bufsize=62500 / nal_hrd=none / filler=0 / ip_ratio=1.40 / aq=3:1.00
Default : Да
Forced : Нет
Аудио
Идентификатор : 2
Формат : AAC
Формат/Информация : Advanced Audio Codec
Профиль формата : LC
Идентификатор кодека : A_AAC
Продолжительность : 1 ч. 40 м.
Битрейт : 76,0 Кбит/сек
Каналы : 2 канала
Расположение каналов : Front: L R
Частота : 48,0 КГц
Частота кадров : 46,875 кадров/сек (1024 SPF)
Метод сжатия : С потерями
Задержка видео : 9 мс.
Размер потока : 54,5 Мбайт (7%)
Default : Да
Forced : Нет
Текст #1
Идентификатор : 3
Формат : UTF-8
Идентификатор кодека : S_TEXT/UTF8
Идентификатор кодека/Информация : UTF-8 Plain Text
Продолжительность : 1 ч. 34 м.
Битрейт : 38 бит/сек
ElementCount : 549
Размер потока : 26,6 Кбайт (0%)
Язык : Russian
Default : Нет
Forced : Нет
Текст #2
Идентификатор : 4
Формат : UTF-8
Идентификатор кодека : S_TEXT/UTF8
Идентификатор кодека/Информация : UTF-8 Plain Text
Продолжительность : 1 ч. 33 м.
Битрейт : 23 бит/сек
ElementCount : 638
Размер потока : 16,1 Кбайт (0%)
Язык : English
Default : Нет
Forced : Нет
Меню
00:00:00.000 : :Chapter 1
00:03:53.150 : :Chapter 2
00:08:46.901 : :Chapter 3
00:13:58.671 : :Chapter 4
00:22:05.115 : :Chapter 5
00:27:20.931 : :Chapter 6
00:32:12.514 : :Chapter 7
00:44:38.467 : :Chapter 8
00:49:14.994 : :Chapter 9
00:53:58.777 : :Chapter 10
01:02:48.056 : :Chapter 11
01:07:45.019 : :Chapter 12
01:16:13.485 : :Chapter 13
01:26:19.174 : :Chapter 14
01:31:18.681 : :Chapter 15
01:35:42.195 : :Chapter 16

Скриншоты


[Цитировать]



Показать сообщения:    

Текущее время: 15-Авг 17:16

Часовой пояс: UTC + 6


Вы не можете начинать темы
Вы не можете отвечать на сообщения
Вы не можете редактировать свои сообщения
Вы не можете удалять свои сообщения
Вы не можете голосовать в опросах
Вы не можете прикреплять файлы к сообщениям
Вы не можете скачивать файлы

!ВНИМАНИЕ!
Сайт не предоставляет электронные версии произведений, а занимается лишь коллекционированием и каталогизацией ссылок, присылаемых и публикуемых на форуме нашими читателями. Если вы являетесь правообладателем какого-либо представленного материала и не желаете, чтобы ссылка на него находилась в нашем каталоге, свяжитесь с нами, и мы незамедлительно удалим ее. Файлы для обмена на трекере предоставлены пользователями сайта, и администрация не несет ответственности за их содержание. Просьба не заливать файлы, защищенные авторскими правами, а также файлы нелегального содержания!