[ Сегодня идет свободное скачивание без начисления Download ]


Статистика раздачи
Нет
 
   
 
 
 
 
Глаза змеи / Snake Eyes
«…пристально следят за своей жертвой»
- Год выпуска: 1998
Страна: США
Жанр: Триллер, криминал, детектив-Продолжительность: 1:38:16
Перевод №1: Профессиональный (полное дублирование)
Перевод №2: Профессиональный (многоголосый закадровый) [ОРТ / Первый канал] {отдельно на файлообменнике}
Перевод №3: Авторский (одноголосый закадровый) [Ю. Живов] {отдельно на файлообменнике}
Субтитры: Нет-Режиссер: Брайан Де Пальма / Brian De Palma
В ролях: Николас Кейдж, Гэри Синиз, Джон Хёрд, Карла Гуджино, Стэн Шоу, Кевин Данн, Майкл Рисполи, Джоэл Фабиани, Луис Гузман, Дэвид Энтони Хиггинс и др.-Описание: Рик Санторо — эксцентричный детектив полиции Атлантик-Сити — приходит посмотреть на своего спортивного кумира и заодно поправить свои финансовые дела на тотализаторе. Внезапная стрельба во время поединка превращает 14 тысяч болельщиков в свидетелей политического убийства. Показания свидетелей, видеозаписи электронной системы наблюдения за казино и информация, полученная от таинственной незнакомки в белом, — все это вместе рисует перед видавшим виды Санторо настолько невероятную картину убийства, что он просто отказывается в нее верить…-Бюджет: $73 000 000 | Маркетинг: $30 000 000
Сборы в США: $55 591 409 | Сборы в Мире: + $48 300 000 = $103 891 409
Рейтинг MPAA: R (Лицам до 17 лет обязательно присутствие взрослого!)
-Качество видео: HDRip
Формат видео: AVI
Видео: 720x304 (2.37:1), 23.976 fps, XviD build 73 ~1663 kbps avg, 0.32 bit/pixel
Аудио#1: 48 kHz, AC3 Dolby Digital, 3/2 (L,C,R,l,r) + LFE ch, ~448.00 kbps avg [Dub]
Аудио#2: 48 kHz, AC3 Dolby Digital, 2/0 (L,R) ch, ~192.00 kbps avg [MVO] {отдельно на файлообменнике}
Аудио#3: 48 kHz, AC3 Dolby Digital, 3/2 (L,C,R,l,r) + LFE ch, ~384.00 kbps avg [AVO] {отдельно на файлообменнике}
Размер: 1490.88 Mb ( 1 563 303 936 bytes ) ? DVD

Интересные факты

  • В концовке фильма планировалось сделать масштабную сцену затопления казино, но ее вырезали во время пост-продакшена. Тем не менее, в финальной версии остались некоторые отсылки к несуществующей сцене: герой Кейджа говорит в концовке, что «чуть не утонул», сцену с гигантской волной и машиной скорой помощи оставили на экране, а красной нитью через всю картину проходит тема необычайно сильного шторма.
  • Возраст, который называют главные герои фильма Джулия Кастелло (Карла Гуджино) и Рик Санторо (Николаса Кейдж) — 26 лет и 34 года, соответствует реальному возрасту актеров на момент съемок фильма.
  • На главную роль изначально был утвержден Уилл Смит, но он не пришел в согласие со студией по поводу зарплаты.
  • Пьяница во время бокса кричит «Сейчас будет больно». Эта же фраза звучит в другом фильме Брайана де Пальмы «Путь Карлито».
  • Первые двенадцать минут были сняты одной длинной сценой, с самого начала до убийства.
  • «Глаза змеи» — термин из игры в кости. Означает две единицы.
  • В фильме «Покидая Лас-Вегас» герой Николаса Кейджа заказывает в казино комбинацию костей «Глаза змеи»
  • Во время финальных титров строители устанавливают бетонную колону. В последнем кадре один из рабочих убирает руку с колоны и можно увидеть перстень, который был на рыжеволосой девушке.

MediaInfo

[color=black]General
Complete name                            : C:\Users\Downloads\Encode\Glaza_zmei.1998.WEB-DLRip.[R.G.AllFilms].avi
Format                                   : AVI
Format/Info                              : Audio Video Interleave
File size                                : 1.46 GiB
Duration                                 : 1h 38mn
Overall bit rate                         : 2 121 Kbps
Movie name                               : Snake Eyes (1998) - WEB-DLRip by Juvelir
Writing application                      : VirtualDubMod 1.5.10.3 | www.virtualdub-fr.org || (build 2550/release)
Video
ID                                       : 0
Format                                   : MPEG-4 Visual
Format profile                           : Advanced Simple@L5
Format settings, BVOP                    : 1
Format settings, QPel                    : No
Format settings, GMC                     : No warppoints
Format settings, Matrix                  : Custom
Codec ID                                 : XVID
Codec ID/Hint                            : XviD
Duration                                 : 1h 38mn
Bit rate                                 : 1 664 Kbps
Width                                    : 720 pixels
Height                                   : 304 pixels
Display aspect ratio                     : 2.35:1
Frame rate                               : 23.976 fps
Color space                              : YUV
Chroma subsampling                       : 4:2:0
Bit depth                                : 8 bits
Scan type                                : Progressive
Compression mode                         : Lossy
Bits/(Pixel*Frame)                       : 0.317
Stream size                              : 1.14 GiB (78%)
Writing library                          : XviD 73
Audio
ID                                       : 1
Format                                   : AC-3
Format/Info                              : Audio Coding 3
Mode extension                           : CM (complete main)
Format settings, Endianness              : Big
Codec ID                                 : 2000
Duration                                 : 1h 38mn
Bit rate mode                            : Constant
Bit rate                                 : 448 Kbps
Channel(s)                               : 6 channels
Channel positions                        : Front: L C R, Side: L R, LFE
Sampling rate                            : 48.0 KHz
Bit depth                                : 16 bits
Compression mode                         : Lossy
Stream size                              : 315 MiB (21%)
Alignment                                : Split accross interleaves
Interleave, duration                     : 42 ms (1.00 video frame)
Interleave, preload duration             : 500 ms[/color]

Скриншоты



[Цитировать]



Показать сообщения:    

Текущее время: 23-Авг 10:05

Часовой пояс: UTC + 6


Вы не можете начинать темы
Вы не можете отвечать на сообщения
Вы не можете редактировать свои сообщения
Вы не можете удалять свои сообщения
Вы не можете голосовать в опросах
Вы не можете прикреплять файлы к сообщениям
Вы не можете скачивать файлы

!ВНИМАНИЕ!
Сайт не предоставляет электронные версии произведений, а занимается лишь коллекционированием и каталогизацией ссылок, присылаемых и публикуемых на форуме нашими читателями. Если вы являетесь правообладателем какого-либо представленного материала и не желаете, чтобы ссылка на него находилась в нашем каталоге, свяжитесь с нами, и мы незамедлительно удалим ее. Файлы для обмена на трекере предоставлены пользователями сайта, и администрация не несет ответственности за их содержание. Просьба не заливать файлы, защищенные авторскими правами, а также файлы нелегального содержания!