[ Сегодня идет свободное скачивание без начисления Download ]


Статистика раздачи
Качаю: [ 1 ]
Скачал: [ 1 ]
 
   
 
 
 
 
Полиция Чикаго / Chicago P.D. [5 сезон: серии 01-23 из 23] (2017) WEB-DLRip 1080p Название: Полиция Чикаго (Полицейский департамент Чикаго)
Оригинальное название: Chicago P.D.
Год выпуска: 2017
Жанр: Боевик, драма
Выпущено: США, Universal TV, Wolf Films
Режиссер: Джо Чаппелль, Марк Тинкер
В ролях: Джейсон Бех, Джон Седа, Трэйси Спиридакос, Джесси Ли Соффер, Патрик Флюгер, Марина Скверсьяти, Элиас Котеас, Эми Мортон
Описание: Полицейский департамент Чикаго (Chicago P.D.) — американский телесериал, созданный Дереком Хаасом и Майклом Брандтом, который является спин-оффом шоу «Пожарные Чикаго». В центре сюжета находятся работники полицейского департамента города Чикаго, в частности две группы полицейских, которые находятся на разных ступенях власти.

Качество: WEB-DLRip 1080p
Кодек: AVC (h264), High@L4
Видео: 1920x1080 (1.77:1), 23.976 fps, ~9377 kbps
Аудио: Rus / 48 kHz, AC3 Dolby Digital, 3/2 (L,C,R,l,r) + LFE ch, ~640 kbps avg
Продолжительность: ~ 00:43:00
Перевод: Любительский (одноголосный) - Денис Шадинский
Сведение 5.1: dilnix
Семпл
Внимание! Присутствует реклама!

Внимание! Раздача ведётся путём добавления новых серий

При каждом добавлении создаётся новый торрент. Чтобы начать докачку новой серии, пользователям необходимо сделать следующее:
(1) остановить скачивание,
(2) удалить старый торрент у себя из клиента (старые серии удалять не надо),
(3) скачать новый торрент и запустить его у себя в клиенте вместо старого, при этом указать клиенту путь в старую папку куда и должно происходить скачивание новых серий.
Ваш клиент при этом должен произвести хеширование (проверку) старой папки (если не производит сам - помогите ему сделать это), и будет докачивать только те серии которых у вас ещё нет. Старые серии при этом не удаляются, а продолжают раздаваться!
Eсли вы уже удалили старые серии, то предотвратить повторную закачку старых серий можно, отжав галочку в соответствующих местах при запуске нового торрента. По возможности, желательно не удалять старые серии как можно дольше, чтобы релизёр не столько продолжал раздавать старые серии, а смог сконцентрироваться на новых.

Авторская раздача

Внимание! Данная раздача является авторской. Источником основного видеоряда являются релизы AMZN.WEB-DL 1080p от KINGS. Добавление заранее подготовленных видео вставок от автора озвучки происходит без перекодировки основного видеоряда, в режиме COPY. Несмотря на это, информация контейнера при таком добавлении всё равно меняется, что нужно учитывать.
Автор проекта и озвучки, Денис Шадинский, благодарит всех ценителей Чикагских сериалов, и особенно тех, кто спонсировал осуществление озвучки.

MediaInfo

General
Unique ID : 337798965781143436744573943517471647602 (0xFE21B6DEDC817672982CB18032292772)
Complete name : Chicago.P.D.S05E01.Reform.1080p.AMZN.WEB-DL.Rus[shad].mkv
Format : Matroska
Format version : Version 4 / Version 2
File size : 3.06 GiB
Duration : 42 min 47 s
Overall bit rate : 10.2 Mb/s
Writing application : Lavf57.71.100
Writing library : Lavf57.71.100
ErrorDetectionType : Per level 1
Video
ID : 1
Format : AVC
Format/Info : Advanced Video Codec
Format profile : High@L4
Format settings : CABAC / 4 Ref Frames
Format settings, CABAC : Yes
Format settings, RefFrames : 4 frames
Codec ID : V_MPEG4/ISO/AVC
Duration : 42 min 47 s
Bit rate : 9 377 kb/s
Width : 1 920 pixels
Height : 1 080 pixels
Display aspect ratio : 16:9
Frame rate mode : Variable
Color space : YUV
Chroma subsampling : 4:2:0
Bit depth : 8 bits
Scan type : Progressive
Stream size : 2.80 GiB (92%)
Writing library : x264 core 148 r2795 aaa9aa8
Encoding settings : cabac=1 / ref=3 / deblock=1:0:0 / analyse=0x3:0x113 / me=hex / subme=7 / psy=1 / psy_rd=1,00:0,00 / mixed_ref=1 / me_range=16 / chroma_me=1 / trellis=1 / 8x8dct=1 / cqm=0 / deadzone=21,11 / fast_pskip=1 / chroma_qp_offset=-2 / threads=6 / lookahead_threads=1 / sliced_threads=0 / nr=0 / decimate=1 / interlaced=0 / bluray_compat=0 / constrained_intra=0 / bframes=2 / b_pyramid=2 / b_adapt=1 / b_bias=0 / direct=1 / weightb=1 / open_gop=0 / weightp=2 / keyint=13 / keyint_min=1 / scenecut=40 / intra_refresh=0 / rc_lookahead=13 / rc=crf / mbtree=1 / crf=21,0 / qcomp=0,60 / qpmin=0 / qpmax=69 / qpstep=4 / ip_ratio=1,40 / aq=1:1,00
Default : Yes
Forced : No
Color range : Limited
Transfer characteristics : BT.709
Matrix coefficients : BT.709
Audio
ID : 2
Format : AC-3
Format/Info : Audio Coding 3
Format settings, Endianness : Big
Codec ID : A_AC3
Duration : 42 min 47 s
Bit rate mode : Constant
Bit rate : 640 kb/s
Channel(s) : 6 channels
Channel positions : Front: L C R, Side: L R, LFE
Sampling rate : 48.0 kHz
Frame rate : 31.250 FPS (1536 SPF)
Bit depth : 16 bits
Compression mode : Lossy
Stream size : 196 MiB (6%)
Language : Russian
Service kind : Complete Main
Default : Yes
Forced : No

Скриншоты

[Цитировать]



Показать сообщения:    

Текущее время: 16-Авг 16:22

Часовой пояс: UTC + 6


Вы не можете начинать темы
Вы не можете отвечать на сообщения
Вы не можете редактировать свои сообщения
Вы не можете удалять свои сообщения
Вы не можете голосовать в опросах
Вы не можете прикреплять файлы к сообщениям
Вы не можете скачивать файлы

!ВНИМАНИЕ!
Сайт не предоставляет электронные версии произведений, а занимается лишь коллекционированием и каталогизацией ссылок, присылаемых и публикуемых на форуме нашими читателями. Если вы являетесь правообладателем какого-либо представленного материала и не желаете, чтобы ссылка на него находилась в нашем каталоге, свяжитесь с нами, и мы незамедлительно удалим ее. Файлы для обмена на трекере предоставлены пользователями сайта, и администрация не несет ответственности за их содержание. Просьба не заливать файлы, защищенные авторскими правами, а также файлы нелегального содержания!