[ Сегодня идет свободное скачивание без начисления Download ]


Статистика раздачи
Качаю: [ 1 ]
Скачал: [ 5 ]
 
   
 
 
 
 
Острые козырьки -««The streets are theirs»»- -
Год выпуска: 2013
Страна: Великобритания
Жанр: драма, криминал
Продолжительность: 00:57:50
Перевод: Профессиональный многоголосый - Режиссер: Колм МакКарти, Тим Милантс, Дэвид Кэффри- В ролях:
-Киллиан Мёрфи, Сэм Нил, Хелен МакКрори, Аннабелль Уоллис, Иддо Голдберг, Пол Андерсон, Софи Рандл, Джо Коул, Чарли Крид-Майлз, Том Харди, Энди Найман (Winston Churchill), Нед Деннехи- Описание:
Британский сериал о криминальном мире Бирмингема 20-х годов прошлого века, в котором многолюдная семья Шелби стала одной из самых жестоких и влиятельных гангстерских банд послевоенного времени. Фирменным знаком группировки, промышлявшей грабежами и азартными играми, стали зашитые в козырьки лезвия.-Мировая премьера: 15 Ноября 2017
- Качество: HDTVRip-AVC by
Формат: MKV
Видео кодек: AVC
Аудио кодек: AC3
Видео: AVC, 1024x576 (16:9), 25.000 fps, 1 600 Kbps (0.109 bit/pixel)
Аудио: Русский / AC3 / 2.0 / 48 kHz / 192 kbps / ||

Релиз

Перевод: Виктория Востокова
Монтаж и сведение звука: Михаил Шорыгин
Роли озвучивали:
Евгения Тихонова
Екатерина Муравицкая
Владимир Курдов
Константин Погодаев
Кирилл Патрино
Михаил Суслов

ОтчетМедиаИнфо

Общее
Уникальный идентификатор : 215063640637306250066284889442918158976 (0xA1CBC023BB7B32F7B641C21AA76D5280)
Полное имя : E:Peaky.Blinders S.04 HDTVRip-AVC GeneralfilmPeaky.Blinders.s04e01.HDTVRip-AVC.by.White Smoke.R.G.Generalfilm.AlexFilm.mkv
Формат : Matroska
Размер файла : 742 Мбайт
Продолжительность : 57 м.
Общий поток : 1793 Кбит/сек
Название фильма : Peaky.Blinders.s04e01.HDTVRip-AVC.by.White Smoke.R.G.Generalfilm.AlexFilm.mkv
Дата кодирования : UTC 2017-11-27 13:23:08
Программа кодирования : mkvmerge v6.8.0 ('Theme for Great Cities') 64bit built on Mar 2 2014 21:34:26
Библиотека кодирования : libebml v1.3.0 + libmatroska v1.4.1
Видео
Идентификатор : 1
Формат : AVC
Формат/Информация : Advanced Video Codec
Профиль формата : High@L4.1
Параметр CABAC формата : Да
Параметр ReFrames формата : 12 кадры
Параметры GOP формата : M=11, N=25
Идентификатор кодека : V_MPEG4/ISO/AVC
Продолжительность : 57 м.
Битрейт : 1600 Кбит/сек
Ширина : 1024 пикс.
Высота : 576 пикс.
Соотношение сторон : 16:9
Частота кадров : 25,000 кадр/сек
Цветовое пространство : YUV
Подвыборка цветности : 4:2:0
Битовая глубина : 8 бит
Тип развёртки : Прогрессивная
Бит/(Пиксели*Кадры) : 0.109
Размер потока : 648 Мбайт (87%)
Библиотека кодирования : x264 core 148 r2638 7599210
Настройки программы : cabac=1 / ref=12 / deblock=1:-1:-2 / analyse=0x3:0x113 / me=umh / subme=11 / psy=1 / psy_rd=1.00:0.14 / mixed_ref=1 / me_range=32 / chroma_me=1 / trellis=2 / 8x8dct=1 / cqm=0 / deadzone=21,11 / fast_pskip=0 / chroma_qp_offset=-5 / threads=6 / lookahead_threads=1 / sliced_threads=0 / nr=0 / decimate=0 / interlaced=0 / bluray_compat=0 / constrained_intra=0 / bframes=10 / b_pyramid=2 / b_adapt=2 / b_bias=10 / direct=1 / weightb=0 / open_gop=0 / weightp=2 / keyint=250 / keyint_min=25 / scenecut=40 / intra_refresh=0 / rc_lookahead=40 / rc=2pass / mbtree=1 / bitrate=1600 / ratetol=1.0 / qcomp=0.70 / qpmin=0 / qpmax=69 / qpstep=4 / cplxblur=20.0 / qblur=0.5 / vbv_maxrate=50000 / vbv_bufsize=65500 / nal_hrd=none / filler=0 / ip_ratio=1.40 / aq=1:1.00
Аудио
Идентификатор : 2
Формат : AC-3
Формат/Информация : Audio Coding 3
Расширение режима : CM (complete main)
Идентификатор кодека : A_AC3
Продолжительность : 57 м.
Вид битрейта : Постоянный
Битрейт : 192 Кбит/сек
Канал(ы) : 2 канала(ов)
Расположение каналов : Front: L R
Частота : 48,0 КГц
Битовая глубина : 16 бит
Метод сжатия : С потерями
Размер потока : 79,4 Мбайт (11%)
Заголовок : DD2.0 AlexFilm
Язык : Russian

Скриншоты






Раздача ведётся путём добавления новых серий

Внимание! Раздача ведётся путём добавления новых серий; при каждом добавлении создаётся новый торрент.
Чтобы начать докачку новой серии, пользователям необходимо сделать следующее:
1. Остановить скачивание;
2. Удалить старый торрент у себя из клиента (старые серии удалять не надо);
3. Скачать новый торрент и запустить его у себя в клиенте вместо старого, при этом указать клиенту путь в старую папку куда и должно происходить скачивание новых серий. Ваш клиент при этом должен произвести хеширование (проверку) старой папки и будет докачивать только те серии, которых у вас ещё нет. Старые серии при этом не удаляются, а продолжают раздаваться! Eсли вы уже удалили старые серии, то предотвратить повторную закачку старых серий можно, отжав галочку в соответствующих местах при запуске нового торрента.

[Цитировать]

Отлично!!! good

[Цитировать]



Показать сообщения:    

Текущее время: 20-Июн 15:28

Часовой пояс: UTC + 6


Вы не можете начинать темы
Вы не можете отвечать на сообщения
Вы не можете редактировать свои сообщения
Вы не можете удалять свои сообщения
Вы не можете голосовать в опросах
Вы не можете прикреплять файлы к сообщениям
Вы не можете скачивать файлы

!ВНИМАНИЕ!
Сайт не предоставляет электронные версии произведений, а занимается лишь коллекционированием и каталогизацией ссылок, присылаемых и публикуемых на форуме нашими читателями. Если вы являетесь правообладателем какого-либо представленного материала и не желаете, чтобы ссылка на него находилась в нашем каталоге, свяжитесь с нами, и мы незамедлительно удалим ее. Файлы для обмена на трекере предоставлены пользователями сайта, и администрация не несет ответственности за их содержание. Просьба не заливать файлы, защищенные авторскими правами, а также файлы нелегального содержания!