[ Сегодня идет свободное скачивание без начисления Download ]


Статистика раздачи
Нет
 
   
 
 
 
 
МакГайвер / MacGyver [S01] (2016) WEB-DL 720p | ПМ Название: МакГайвер
Оригинальное название: MacGyver
Год выпуска: 2016
Жанр: боевик, драма, приключения
Выпущено: США, 101st Street Television, Atomic Monster, Lionsgate
Режиссер: Джерри Ливайн, Джеймс Ван
В ролях: Джордж Идс, Джастин Хайрс, Сандрин Холт, Тристин Мейс, Лукас Тилл, Айна Думлао, Рой Култер
Описание:
История молодого человека лет двадцати, Ангуса «Мака» МакГайвера, который создает тайную организацию внутри правительства США, где он использует свой исключительный талант в решении неординарных проблем и обширные научные знания, чтобы спасать жизни. Следовать за ним в его рискованных миссиях по всему свету будет независимый бывших агент ЦРУ Джек Далтон. Под эгидой Департамента Внешних Дел МакГайвер берется за спасение мира, вооружившись до зубов лишь смекалкой, жвачкой и скрепкой.

Качество: WEB-DL 720p
Видео: 1280x720, 23.976 fps, MPEG-4 AVC ~4000 kbps
Аудио #1: Русский (AC3, 6 ch, 384 Кбит/с)
Перевод: Профессиональный (многоголосый закадровый) (NewStudio)
Аудио #2: Английский (AC3, 6 ch, 384 Кбит/с)
Субтитры: Русские (на надписи)
Продолжительность: 21 х ~00:45:00
Реклама: Полностью отсутствует

MediaInfo:

Общее
Уникальный идентификатор : 220559146936053853018969577422267432081 (0xA5EE2584E87243618648F688F1A53C91)
Полное имя : D:\MacGyver.S01.WEBDL.720p.Generalfilm\MacGyver.2016.S01E01.720p.WEB-DL.Generalfilm.mkv
Формат : Matroska
Версия формата : Version 4 / Version 2
Размер файла : 1,46 Гбайт
Продолжительность : 43 м. 11 с.
Общий поток : 4832 Кбит/сек
Дата кодирования : UTC 2016-09-29 02:54:14
Программа кодирования : mkvmerge v8.3.0 ('Over the Horizon') 64bit
Библиотека кодирования : libebml v1.3.1 + libmatroska v1.4.2
Видео
Идентификатор : 1
Формат : AVC
Формат/Информация : Advanced Video Codec
Профиль формата : High@L3.1
Настройки формата : 2 Ref Frames
Параметр CABAC формата : Нет
Параметр RefFrames формата : 2 кадра
Идентификатор кодека : V_MPEG4/ISO/AVC
Продолжительность : 43 м. 11 с.
Битрейт : 3968 Кбит/сек
Ширина : 1280 пикселей
Высота : 720 пикселей
Соотношение сторон : 16:9
Режим частоты кадров : Постоянный
Частота кадров : 23,976 (24000/1001) кадра/сек
Цветовое пространство : YUV
Субдискретизация насыщенности : 4:2:0
Битовая глубина : 8 бит
Тип развёртки : Прогрессивная
Бит/(Пиксели*Кадры) : 0.180
Размер потока : 1,20 Гбайт (82%)
Язык : English
Default : Да
Forced : Нет
Цветовой диапазон : Limited
Основные цвета : BT.709
Характеристики трансфера : BT.709
Коэффициенты матрицы : BT.709
Аудио #1
Идентификатор : 2
Формат : AC-3
Формат/Информация : Audio Coding 3
Параметр Endianness формата : Big
Идентификатор кодека : A_AC3
Продолжительность : 43 м. 11 с.
Вид битрейта : Постоянный
Битрейт : 384 Кбит/сек
Каналы : 6 каналов
Расположение каналов : Front: L C R, Side: L R, LFE
Частота : 48,0 КГц
Частота кадров : 31,250 кадров/сек (1536 SPF)
Битовая глубина : 16 бит
Метод сжатия : С потерями
Размер потока : 119 Мбайт (8%)
Язык : Russian
ServiceKind/String : Complete Main
Default : Да
Forced : Нет
Аудио #2
Идентификатор : 3
Формат : AC-3
Формат/Информация : Audio Coding 3
Параметр Endianness формата : Big
Идентификатор кодека : A_AC3
Продолжительность : 43 м. 11 с.
Вид битрейта : Постоянный
Битрейт : 384 Кбит/сек
Каналы : 6 каналов
Расположение каналов : Front: L C R, Side: L R, LFE
Частота : 48,0 КГц
Частота кадров : 31,250 кадров/сек (1536 SPF)
Битовая глубина : 16 бит
Метод сжатия : С потерями
Размер потока : 119 Мбайт (8%)
Язык : English
ServiceKind/String : Complete Main
Default : Нет
Forced : Нет
Текст #1
Идентификатор : 4
Формат : UTF-8
Идентификатор кодека : S_TEXT/UTF8
Идентификатор кодека/Информация : UTF-8 Plain Text
Язык : Russian
Default : Да
Forced : Нет
Текст #2
Идентификатор : 5
Формат : UTF-8
Идентификатор кодека : S_TEXT/UTF8
Идентификатор кодека/Информация : UTF-8 Plain Text
Язык : English
Default : Нет
Forced : Нет

Скриншоты

Релиз от:

[Цитировать]



Показать сообщения:    

Текущее время: 14-Дек 19:05

Часовой пояс: UTC + 6


Вы не можете начинать темы
Вы не можете отвечать на сообщения
Вы не можете редактировать свои сообщения
Вы не можете удалять свои сообщения
Вы не можете голосовать в опросах
Вы не можете прикреплять файлы к сообщениям
Вы не можете скачивать файлы

!ВНИМАНИЕ!
Сайт не предоставляет электронные версии произведений, а занимается лишь коллекционированием и каталогизацией ссылок, присылаемых и публикуемых на форуме нашими читателями. Если вы являетесь правообладателем какого-либо представленного материала и не желаете, чтобы ссылка на него находилась в нашем каталоге, свяжитесь с нами, и мы незамедлительно удалим ее. Файлы для обмена на трекере предоставлены пользователями сайта, и администрация не несет ответственности за их содержание. Просьба не заливать файлы, защищенные авторскими правами, а также файлы нелегального содержания!