[ Сегодня идет свободное скачивание без начисления Download ]


Статистика раздачи
Скачал: [ 2 ]
 
   
 
 
 
 
Апостол [01-12 из 12] (2008) -Информация о фильме
Название: Апостол
Год выхода: 2008
Жанр: военный, шпионский
Режиссер: Геннадий Сидоров, Юрий Мороз, Николай Лебедев (III)
В ролях: Евгений Миронов, Николай Фоменко, Дарья Мороз, Андрей Смирнов, Лариса Малеванная, Юрий Назаров, Алёна Бабенко, Михаил Федоровский (II), Сергей Быстрицкий, Александр Новин и др.-О фильме:
В начале 1942 года немцы забрасывают в СССР своего диверсанта. Высадка происходит неудачно — шпиона захватывает НКВД. При попытке побега диверсант, оказавшийся русским вором в законе, случайно оставшимся на оккупированной территории, погибает. Чтобы найти остальных шпионов, участвующих в операции, чекистам приходится обратиться к брату-близнецу преступника — сельскому учителю. Тот занимает место покойного в немецкой агентурной сети и вступает в смертельно опасную игру.
Страна: Россия
Студия: Компания "Элегия" по заказу "Централ Партнершип"
Продолжительность: серия ~00:50:00
Перевод: Оригинальный
Файл
Кодек: H264
Качество: WEBRip 1080p
Видео: 1834x1080, 25 fps, 6000 kbps
Звук: AC3, 48 Hz, 6 ch, 448 kbps
Субтитры: нет
Семпл

MediaInfo

General
Unique ID : 235726322786645987340566708815413797783 (0xB1573D060BDA8DADBEEB7B8D5A826397)
Complete name : L:Apostol_1080Apostol_1080_L42_Apostol_1080_L4.mkv
Format : Matroska
Format version : Version 4 / Version 2
File size : 2.25 GiB
Duration : 49 min 50 s
Overall bit rate : 6 451 kb/s
Encoded date : UTC 2017-11-19 07:09:20
Writing application : mkvmerge v6.9.1 ('Blue Panther') 32bit built on Apr 18 2014 18:15:44
Writing library : libebml v1.3.0 + libmatroska v1.4.1
Attachments : apostol2008.jpg
Video
ID : 1
Format : AVC
Format/Info : Advanced Video Codec
Format profile : High@L4
Format settings : CABAC / 4 Ref Frames
Format settings, CABAC : Yes
Format settings, ReFrames : 4 frames
Codec ID : V_MPEG4/ISO/AVC
Duration : 49 min 50 s
Bit rate : 6 000 kb/s
Width : 1 834 pixels
Height : 1 080 pixels
Display aspect ratio : 5:3
Frame rate mode : Constant
Frame rate : 25.000 FPS
Color space : YUV
Chroma subsampling : 4:2:0
Bit depth : 8 bits
Scan type : Progressive
Bits/(Pixel*Frame) : 0.121
Stream size : 2.04 GiB (91%)
Writing library : x264 core 152 r2851M ba24899
Encoding settings : cabac=1 / ref=4 / deblock=1:0:0 / analyse=0x3:0x113 / me=umh / subme=10 / psy=1 / psy_rd=1.00:0.00 / mixed_ref=1 / me_range=32 / chroma_me=1 / trellis=2 / 8x8dct=1 / cqm=0 / deadzone=6,6 / fast_pskip=0 / chroma_qp_offset=-2 / threads=9 / lookahead_threads=1 / sliced_threads=0 / nr=0 / decimate=0 / interlaced=0 / bluray_compat=0 / constrained_intra=0 / bframes=9 / b_pyramid=2 / b_adapt=2 / b_bias=0 / direct=3 / weightb=1 / open_gop=0 / weightp=2 / keyint=250 / keyint_min=25 / scenecut=40 / intra_refresh=0 / rc_lookahead=60 / rc=2pass / mbtree=1 / bitrate=6000 / ratetol=1.0 / qcomp=0.80 / qpmin=3 / qpmax=69 / qpstep=4 / cplxblur=20.0 / qblur=0.5 / ip_ratio=1.10 / aq=2:0.50
Default : Yes
Forced : No
Audio
ID : 2
Format : AC-3
Format/Info : Audio Coding 3
Codec ID : A_AC3
Duration : 49 min 50 s
Bit rate mode : Constant
Bit rate : 448 kb/s
Channel(s) : 6 channels
Channel positions : Front: L C R, Side: L R, LFE
Sampling rate : 48.0 kHz
Frame rate : 31.250 FPS (1536 SPF)
Bit depth : 16 bits
Compression mode : Lossy
Stream size : 160 MiB (7%)
Language : Russian
Service kind : Complete Main
Default : Yes
Forced : No

Скриншоты

[Цитировать]



Показать сообщения:    

Текущее время: 15-Авг 14:59

Часовой пояс: UTC + 6


Вы не можете начинать темы
Вы не можете отвечать на сообщения
Вы не можете редактировать свои сообщения
Вы не можете удалять свои сообщения
Вы не можете голосовать в опросах
Вы не можете прикреплять файлы к сообщениям
Вы не можете скачивать файлы

!ВНИМАНИЕ!
Сайт не предоставляет электронные версии произведений, а занимается лишь коллекционированием и каталогизацией ссылок, присылаемых и публикуемых на форуме нашими читателями. Если вы являетесь правообладателем какого-либо представленного материала и не желаете, чтобы ссылка на него находилась в нашем каталоге, свяжитесь с нами, и мы незамедлительно удалим ее. Файлы для обмена на трекере предоставлены пользователями сайта, и администрация не несет ответственности за их содержание. Просьба не заливать файлы, защищенные авторскими правами, а также файлы нелегального содержания!